<?xml version="1.0" standalone="no"?>
<!DOCTYPE svg PUBLIC "-//W3C//DTD SVG 1.1//EN" "http://www.w3.org/Graphics/SVG/1.1/DTD/svg11.dtd" >
<svg xmlns="http://www.w3.org/2000/svg" xmlns:xlink="http://www.w3.org/1999/xlink" version="1.1">
<metadata></metadata>
<defs>
<font id="nowayregular" horiz-adv-x="1167" >
<font-face units-per-em="2048" ascent="1536" descent="-512" />
<missing-glyph horiz-adv-x="536" />
<glyph unicode="&#x2e;&#x2e;&#x2e;" horiz-adv-x="1519" d="M113 0v225h231v-225h-231zM645 0v225h232v-225h-232zM1171 0v225h232v-225h-232z" />
<glyph unicode="&#xd;" horiz-adv-x="534" />
<glyph unicode=" "  horiz-adv-x="536" />
<glyph unicode="&#x09;" horiz-adv-x="536" />
<glyph unicode="&#xa0;" horiz-adv-x="536" />
<glyph unicode="!" horiz-adv-x="458" d="M113 0v225h231v-225h-231zM137 1434h182l-28 -1022h-125z" />
<glyph unicode="&#x22;" horiz-adv-x="655" d="M86 1434h170l-20 -484h-132zM399 1434h170l-20 -484h-131z" />
<glyph unicode="#" horiz-adv-x="1081" d="M45 479l27 131h196l41 217h-209l27 131h207l53 291h127l-53 -291h235l54 291h127l-54 -291h215l-28 -131h-211l-41 -217h225l-29 -131h-219l-53 -291h-129l53 291h-233l-54 -291h-129l54 291h-199zM395 610h236l41 217h-236z" />
<glyph unicode="$" horiz-adv-x="1081" d="M86 121l80 137q64 -35 106.5 -54t110.5 -36.5t137 -17.5q150 0 216.5 66.5t66.5 178.5q0 70 -23.5 121.5t-63 81.5t-91 52t-108.5 38t-114 33t-108.5 43t-91 62.5t-63 97.5t-23.5 143q0 168 89 266t257 113v145h143v-145q174 -18 314 -125l-78 -131q-150 98 -312 98 q-72 0 -122 -17.5t-75.5 -49.5t-35.5 -68.5t-10 -83.5q0 -52 23.5 -90.5t63 -62t91 -42t108.5 -35.5t114 -37t108.5 -51.5t91 -74t63 -110.5t23.5 -156q0 -82 -21 -152t-64 -127t-114.5 -94.5t-167.5 -48.5v-183h-143v181q-220 16 -377 135z" />
<glyph unicode="%" horiz-adv-x="1591" d="M113 965v196q0 141 73 215t205 74t205.5 -74t73.5 -215v-196q0 -138 -73.5 -211.5t-205.5 -73.5t-205 73.5t-73 211.5zM260 963q0 -67 27.5 -103.5t103.5 -36.5t103.5 36.5t27.5 103.5v200q0 72 -30 108t-101 36t-101 -36t-30 -108v-200zM426 -59l575 1552h164 l-575 -1552h-164zM922 268v197q0 141 73 215t205 74t205.5 -74t73.5 -215v-197q0 -138 -73.5 -211t-205.5 -73t-205 73t-73 211zM1069 266q0 -67 27.5 -103t103.5 -36t103.5 36t27.5 103v201q0 72 -30 107.5t-101 35.5t-101 -35.5t-30 -107.5v-201z" />
<glyph unicode="&#x26;" horiz-adv-x="1284" d="M104 371q0 68 12.5 123.5t42.5 109t86 96t138 72.5l-64 76q-110 128 -110 270q0 149 106 240.5t269 91.5q190 0 342 -100l-72 -138q-148 74 -270 74q-94 0 -149.5 -45.5t-55.5 -122.5q0 -45 19.5 -88t70.5 -102l449 -518q28 43 54.5 137t41.5 203h155q-22 -268 -145 -469 l246 -281h-215l-123 145q-70 -82 -160.5 -121.5t-234.5 -39.5q-191 0 -312 102.5t-121 284.5zM274 387q0 -115 68.5 -180.5t196.5 -65.5q83 0 142.5 18.5t89.5 43t58 63.5l-346 393q-64 -18 -107.5 -48t-64.5 -68.5t-29 -74.5t-8 -81z" />
<glyph unicode="'" horiz-adv-x="339" d="M86 1434h170l-20 -484h-132z" />
<glyph unicode="(" horiz-adv-x="677" d="M133 637q0 248 85.5 482.5t250.5 428.5l117 -78q-142 -181 -209.5 -395.5t-67.5 -437.5q0 -224 67.5 -438.5t209.5 -395.5l-117 -77q-165 194 -250.5 428.5t-85.5 482.5z" />
<glyph unicode=")" horiz-adv-x="677" d="M92 -197q142 181 209.5 395.5t67.5 438.5q0 223 -67.5 437.5t-209.5 395.5l117 78q165 -194 250.5 -428.5t85.5 -482.5t-85.5 -482.5t-250.5 -428.5z" />
<glyph unicode="*" horiz-adv-x="888" d="M94 1217l58 155l247 -127l-37 291h164l-37 -291l248 127l58 -155l-285 -66l223 -223l-137 -97l-152 263l-151 -263l-137 97l223 223z" />
<glyph unicode="+" horiz-adv-x="980" d="M20 532v148h398v407h147v-407h396v-148h-396v-407h-147v407h-398z" />
<glyph unicode="," horiz-adv-x="458" d="M92 -244q24 28 37.5 44.5t35 50.5t32.5 71.5t12 77.5h-96v225h231v-225q0 -163 -160 -317z" />
<glyph unicode="-" horiz-adv-x="628" d="M72 541v151h485v-151h-485z" />
<glyph unicode="." horiz-adv-x="458" d="M113 0v225h231v-225h-231z" />
<glyph unicode="/" horiz-adv-x="612" d="M-35 -162l524 1757h160l-524 -1757h-160z" />
<glyph unicode="0" horiz-adv-x="1146" d="M123 500v434q0 232 118.5 374t331.5 142t332 -142t119 -374v-434q0 -232 -119 -374t-332 -142t-331.5 142t-118.5 374zM297 510q0 -174 69 -267t207 -93q139 0 208 93t69 267v414q0 174 -69 267t-208 93q-138 0 -207 -93t-69 -267v-414z" />
<glyph unicode="1" horiz-adv-x="1013" d="M96 1255l453 179h137v-1274h260v-160h-786v160h352v1093l-362 -143z" />
<glyph unicode="2" horiz-adv-x="1067" d="M104 1327q196 123 398 123q205 0 328.5 -101.5t123.5 -287.5q0 -81 -36.5 -157.5t-94.5 -137.5t-128.5 -120t-140.5 -114.5t-128 -110.5t-94.5 -120t-36.5 -131h655v-170h-837v147q0 84 37 165t95.5 147t129.5 129.5t142.5 121.5t130 112.5t95.5 113t37 113.5 q0 235 -280 235q-141 0 -322 -96z" />
<glyph unicode="3" horiz-adv-x="1071" d="M74 109l69 135q196 -94 340 -94q94 0 157.5 21t94 60.5t42 81.5t11.5 99q0 241 -290 241h-207v156h207q68 0 122.5 22t91 76t36.5 133q0 119 -64.5 181.5t-194.5 62.5q-131 0 -307 -88l-71 133q190 121 381 121q209 0 319.5 -102.5t110.5 -280.5q0 -239 -172 -315 q97 -30 152.5 -123t55.5 -219q0 -86 -25 -159.5t-78 -135t-147.5 -96.5t-222.5 -35q-214 0 -411 125z" />
<glyph unicode="4" d="M94 291v135l432 1008h189l-434 -983h415v442h174v-442h230v-160h-230v-291h-174v291h-602z" />
<glyph unicode="5" horiz-adv-x="1101" d="M104 113l72 133q184 -96 338 -96q76 0 132 17.5t88.5 45t52 67.5t26 77.5t6.5 82.5q0 133 -70 214t-221 81q-84 0 -144 -18t-124 -53l-100 73l43 697h694v-170h-549l-26 -406q88 43 210 43q92 0 168 -23.5t129 -65t89.5 -99.5t53.5 -126.5t17 -146.5q0 -74 -15 -139 t-50 -124t-88 -101t-135 -67t-185 -25q-110 0 -222 36.5t-190 92.5z" />
<glyph unicode="6" horiz-adv-x="1153" d="M113 471v410q0 126 29.5 228.5t88.5 179.5t155 119t222 42q198 0 375 -111l-70 -141q-157 86 -313 86q-153 0 -233 -94t-80 -260v-131q130 135 313 135q204 0 322 -125t118 -342q0 -218 -120.5 -350.5t-344.5 -132.5q-209 0 -335.5 135t-126.5 352zM287 471 q0 -159 77 -240t211 -81t212.5 80t78.5 237q0 156 -78.5 234.5t-212.5 78.5q-86 0 -163.5 -41t-124.5 -102v-166z" />
<glyph unicode="7" horiz-adv-x="1116" d="M113 1264v170h891v-134l-551 -1300h-187l547 1264h-700z" />
<glyph unicode="8" horiz-adv-x="1150" d="M106 377q0 136 69.5 223t203.5 148q-238 120 -238 329q0 162 118.5 267.5t315.5 105.5t316 -105.5t119 -267.5q0 -209 -238 -329q134 -61 203 -148t69 -223q0 -185 -125 -289t-344 -104t-344 104t-125 289zM276 385q0 -112 82.5 -177t216.5 -65t216.5 65t82.5 177 q0 101 -69 171t-230 116q-161 -46 -230 -116t-69 -171zM313 1077q0 -43 15.5 -80.5t37 -63.5t60 -52t69.5 -42t80 -38q49 22 80 38t70 42t60.5 52t37 63.5t15.5 80.5q0 97 -68 156t-195 59t-194.5 -59t-67.5 -156z" />
<glyph unicode="9" horiz-adv-x="1153" d="M113 967q0 218 120.5 350.5t344.5 132.5q209 0 335.5 -135t126.5 -352v-410q0 -126 -29.5 -228.5t-88.5 -179.5t-155 -119t-222 -42q-199 0 -375 110l70 142q157 -86 313 -86q153 0 233 94t80 260v131q-130 -135 -313 -135q-204 0 -322 125t-118 342zM287 967 q0 -156 78.5 -235t212.5 -79q86 0 163 41.5t125 102.5v166q0 159 -77 240t-211 81t-212.5 -80t-78.5 -237z" />
<glyph unicode=":" horiz-adv-x="458" d="M113 0v225h231v-225h-231zM113 817v225h231v-225h-231z" />
<glyph unicode=";" horiz-adv-x="458" d="M92 -244q24 28 37.5 44.5t35 50.5t32.5 71.5t12 77.5h-96v225h231v-225q0 -163 -160 -317zM113 817v225h231v-225h-231z" />
<glyph unicode="&#x3c;" horiz-adv-x="1028" d="M121 555v98l786 434v-174l-592 -309l592 -309v-174z" />
<glyph unicode="=" horiz-adv-x="976" d="M18 330v147h940v-147h-940zM18 739v148h940v-148h-940z" />
<glyph unicode="&#x3e;" horiz-adv-x="1028" d="M121 121v174l592 309l-592 309v174l786 -434v-98z" />
<glyph unicode="?" horiz-adv-x="1013" d="M80 1329q176 121 373 121q216 0 332 -93t116 -265q0 -67 -23.5 -124.5t-61 -97t-83 -74.5t-91 -64t-83 -58t-61 -64t-23.5 -75v-154h-158v192q0 58 30.5 109t76 86t98.5 73t98.5 71.5t76 80.5t30.5 99q0 202 -274 202q-139 0 -308 -90zM285 0v225h231v-225h-231z" />
<glyph unicode="@" horiz-adv-x="1581" d="M113 598q0 157 42.5 287.5t125.5 227t214.5 150.5t299.5 54q323 0 498 -173.5t175 -502.5q0 -201 -78 -308.5t-223 -107.5q-169 0 -227 97h-8q-68 -97 -189 -97q-116 0 -176.5 71.5t-60.5 201.5v194q0 130 60.5 201.5t176.5 71.5q54 0 96.5 -22t67.5 -54l17 65h123v-458 q0 -79 26.5 -106.5t89.5 -27.5q150 0 150 279q0 528 -518 528q-262 0 -392.5 -151.5t-130.5 -419.5q0 -307 138 -446.5t436 -139.5q116 0 242 29t217 74l49 -119q-97 -54 -232 -91.5t-280 -37.5q-364 0 -546.5 180.5t-182.5 550.5zM651 518q0 -84 23.5 -120t93.5 -36 q71 0 135 60v346q-63 59 -135 59q-70 0 -93.5 -36.5t-23.5 -120.5v-152z" />
<glyph unicode="A" horiz-adv-x="1220" d="M61 0l474 1434h151l475 -1434h-184l-113 356h-508l-112 -356h-183zM399 518h422l-207 647h-8z" />
<glyph unicode="B" horiz-adv-x="1187" d="M195 0v1434h426q201 0 307 -98t106 -281q0 -97 -52.5 -181t-133.5 -116v-8q114 -27 176.5 -114t62.5 -228q0 -88 -24.5 -160t-76 -128.5t-140 -88t-207.5 -31.5h-444zM369 160h243q155 0 226 54t71 192q0 135 -70.5 192t-211.5 57h-258v-495zM369 811h252q116 0 175.5 61 t59.5 172q0 116 -55.5 173t-179.5 57h-252v-463z" />
<glyph unicode="C" horiz-adv-x="1095" d="M143 477v479q0 230 120.5 362t354.5 132q306 0 420 -270l-141 -72q-35 59 -65.5 93.5t-84.5 58.5t-129 24q-159 0 -230 -88t-71 -260v-438q0 -172 71 -260t230 -88q92 0 164.5 47.5t114.5 132.5l141 -76q-121 -270 -420 -270q-234 0 -354.5 131.5t-120.5 361.5z" />
<glyph unicode="D" horiz-adv-x="1302" d="M195 0v1434h440q254 0 393 -178t139 -535q0 -329 -135 -525t-350 -196h-487zM369 160h237q77 0 137.5 21.5t102 62t70 91.5t44.5 117t22.5 132t6.5 143q0 85 -9.5 158t-35 147t-67 125.5t-111 84t-160.5 32.5h-237v-1114z" />
<glyph unicode="E" horiz-adv-x="1054" d="M195 0v1434h731v-160h-557v-463h512v-160h-512v-491h557v-160h-731z" />
<glyph unicode="F" horiz-adv-x="1034" d="M195 0v1434h720v-160h-546v-483h501v-160h-501v-631h-174z" />
<glyph unicode="G" horiz-adv-x="1230" d="M143 477v479q0 230 120.5 362t354.5 132q306 0 420 -270l-141 -72q-35 59 -65.5 93.5t-84.5 58.5t-129 24q-159 0 -230 -88t-71 -260v-438q0 -172 71 -260t230 -88q108 0 183 36.5t112 85.5v326h-272v160h436v-539q-24 -38 -57.5 -72.5t-88.5 -74.5t-136.5 -64 t-176.5 -24q-234 0 -354.5 131.5t-120.5 361.5z" />
<glyph unicode="H" horiz-adv-x="1341" d="M195 0v1434h174v-611h604v611h174v-1434h-174v664h-604v-664h-174z" />
<glyph unicode="I" horiz-adv-x="563" d="M195 0v1434h174v-1434h-174z" />
<glyph unicode="J" horiz-adv-x="808" d="M59 2l21 158q58 -10 104 -10q66 0 111.5 13.5t74 37t44 64.5t21 87.5t5.5 114.5v967h174v-963q0 -86 -10.5 -155t-38 -132.5t-72.5 -106t-117.5 -68t-168.5 -25.5q-67 0 -148 18z" />
<glyph unicode="K" horiz-adv-x="1157" d="M195 0v1434h174v-623h157l371 623h195l-422 -684l432 -750h-199l-362 651h-172v-651h-174z" />
<glyph unicode="L" horiz-adv-x="993" d="M195 0v1434h174v-1274h557v-160h-731z" />
<glyph unicode="M" horiz-adv-x="1564" d="M195 0v1434h127l460 -902l459 902h129v-1434h-164v1001h-10l-373 -739h-82l-372 739h-11v-1001h-163z" />
<glyph unicode="N" horiz-adv-x="1366" d="M195 0v1434h133l669 -1078h11v1078h163v-1434h-151l-651 1059h-11v-1059h-163z" />
<glyph unicode="O" horiz-adv-x="1236" d="M143 477v479q0 230 120.5 362t354.5 132t355 -132t121 -362v-479q0 -230 -121 -361.5t-355 -131.5t-354.5 131.5t-120.5 361.5zM317 498q0 -173 70.5 -260.5t230.5 -87.5t231 88t71 260v438q0 172 -71 260t-231 88t-230.5 -87.5t-70.5 -260.5v-438z" />
<glyph unicode="P" horiz-adv-x="1179" d="M195 0v1434h387q120 0 205.5 -20.5t151.5 -70.5t99 -140t33 -222q0 -233 -121.5 -345t-347.5 -112h-233v-524h-174zM369 684h235q152 0 220.5 74.5t68.5 230.5q0 161 -71.5 223t-246.5 62h-206v-590z" />
<glyph unicode="Q" horiz-adv-x="1236" d="M143 477v479q0 230 120.5 362t354.5 132t355 -132t121 -362v-479q0 -188 -80 -309l164 -152l-107 -116l-164 161q-116 -77 -289 -77q-234 0 -354.5 131.5t-120.5 361.5zM317 498q0 -173 70.5 -260.5t230.5 -87.5q90 0 158 30l-143 137l104 109l144 -139q39 79 39 211v438 q0 172 -71 260t-231 88t-230.5 -87.5t-70.5 -260.5v-438z" />
<glyph unicode="R" horiz-adv-x="1210" d="M195 0v1434h397q234 0 357.5 -103.5t123.5 -333.5q0 -82 -18.5 -149t-46 -109t-66 -74.5t-70 -48.5t-67.5 -28l307 -588h-197l-282 561h-264v-561h-174zM369 721h233q146 0 219.5 64t73.5 212q0 157 -76 217t-239 60h-211v-553z" />
<glyph unicode="S" horiz-adv-x="1081" d="M86 121l80 137q64 -35 106.5 -54t110.5 -36.5t137 -17.5q150 0 216.5 66.5t66.5 178.5q0 70 -23.5 121.5t-63 81.5t-91 52t-108.5 38t-114 33t-108.5 43t-91 62.5t-63 97.5t-23.5 143q0 185 106.5 284t306.5 99q220 0 390 -129l-78 -131q-150 98 -312 98 q-72 0 -122 -17.5t-75.5 -49.5t-35.5 -68.5t-10 -83.5q0 -52 23.5 -90.5t63 -62t91 -42t108.5 -35.5t114 -37t108.5 -51.5t91 -74t63 -110.5t23.5 -156q0 -90 -25.5 -165t-78 -134.5t-141.5 -93t-208 -33.5q-116 0 -229.5 35.5t-204.5 101.5z" />
<glyph unicode="T" horiz-adv-x="1136" d="M92 1274v160h950v-160h-387v-1274h-174v1274h-389z" />
<glyph unicode="U" horiz-adv-x="1323" d="M195 451v983h174v-963q0 -76 13.5 -132t46 -100t90.5 -66.5t143 -22.5t143 22.5t90 66.5t45.5 100t13.5 132v963h174v-983q0 -226 -118 -346.5t-348 -120.5t-348.5 120.5t-118.5 346.5z" />
<glyph unicode="V" d="M63 1434h187l330 -1213h8l330 1213h184l-414 -1434h-211z" />
<glyph unicode="W" horiz-adv-x="1732" d="M72 1434h182l258 -1213h8l260 1213h172l260 -1213h9l258 1213h182l-332 -1434h-219l-240 1065h-8l-239 -1065h-220z" />
<glyph unicode="X" horiz-adv-x="1032" d="M51 0l371 739l-348 695h192l246 -527h8l246 527h192l-348 -695l371 -739h-190l-271 569h-8l-270 -569h-191z" />
<glyph unicode="Y" horiz-adv-x="1153" d="M57 1434h195l319 -721h11l319 721h199l-436 -902v-532h-175v532z" />
<glyph unicode="Z" horiz-adv-x="1083" d="M119 0v129l631 1145h-600v160h808v-134l-630 -1140h630v-160h-839z" />
<glyph unicode="[" horiz-adv-x="727" d="M195 -238v1749h389v-151h-226v-1446h226v-152h-389z" />
<glyph unicode="\" horiz-adv-x="612" d="M-35 1595h160l524 -1757h-160z" />
<glyph unicode="]" horiz-adv-x="727" d="M143 -86h226v1446h-226v151h389v-1749h-389v152z" />
<glyph unicode="^" horiz-adv-x="1030" d="M33 750l430 786h102l430 -786h-170l-311 591l-311 -591h-170z" />
<glyph unicode="_" horiz-adv-x="1087" d="M80 -82h928v-131h-928v131z" />
<glyph unicode="`" horiz-adv-x="839" d="M276 1599h179l112 -337h-121z" />
<glyph unicode="a" horiz-adv-x="1069" d="M111 307q0 80 28.5 146.5t78 111.5t112 78.5t136.5 52t144.5 27t141.5 8.5v68q0 192 -238 192q-136 0 -303 -76l-49 136q170 92 352 92q401 0 401 -379v-764h-131l-18 119q-114 -135 -307 -135q-162 0 -255 90.5t-93 232.5zM274 307q0 -89 60.5 -139.5t150.5 -50.5 q101 0 173.5 49.5t95.5 112.5v321q-59 0 -113 -5.5t-109.5 -18t-100.5 -35t-81 -53.5t-56 -77.5t-20 -103.5z" />
<glyph unicode="b" horiz-adv-x="1095" d="M164 0v1536h164v-518q48 52 121.5 88.5t160.5 36.5q181 0 277 -111.5t96 -314.5v-307q0 -203 -96 -314.5t-277 -111.5q-88 0 -163 37t-123 88l-33 -109h-127zM328 244q113 -109 245 -109q131 0 188.5 69.5t57.5 217.5v283q0 147 -57.5 216.5t-188.5 69.5 q-133 0 -245 -108v-639z" />
<glyph unicode="c" horiz-adv-x="921" d="M113 410v307q0 202 102.5 314t306.5 112q227 0 346 -176l-108 -99q-53 64 -103 93.5t-135 29.5q-132 0 -189 -69t-57 -217v-283q0 -148 57 -217.5t189 -69.5q72 0 128.5 27t113.5 92l106 -90q-62 -90 -143.5 -135t-204.5 -45q-204 0 -306.5 112t-102.5 314z" />
<glyph unicode="d" horiz-adv-x="1083" d="M111 410v307q0 203 95.5 314.5t276.5 111.5q87 0 161 -36.5t122 -88.5v518h164v-1536h-127l-33 109q-48 -51 -123.5 -88t-163.5 -37q-181 0 -276.5 111.5t-95.5 314.5zM274 422q0 -148 57.5 -217.5t188.5 -69.5q133 0 246 109v639q-112 108 -246 108q-131 0 -188.5 -69.5 t-57.5 -216.5v-283z" />
<glyph unicode="e" horiz-adv-x="1013" d="M113 373v344q0 200 101.5 313t299.5 113q202 0 299.5 -110.5t97.5 -315.5v-211h-635v-168q0 -91 59.5 -147t188.5 -56q151 0 291 96l68 -125q-61 -55 -160 -88.5t-199 -33.5q-203 0 -307 101.5t-104 287.5zM276 641h476v64q0 147 -55.5 216.5t-182.5 69.5t-182.5 -69.5 t-55.5 -216.5v-64z" />
<glyph unicode="f" horiz-adv-x="768" d="M68 983v129l188 14v43q0 183 83 281t247 98q91 0 174 -37l-41 -135q-69 21 -119 21q-98 0 -139 -51t-41 -142v-78h293v-143h-293v-983h-164v983h-188z" />
<glyph unicode="g" horiz-adv-x="1075" d="M113 410v307q0 203 95.5 314.5t276.5 111.5q88 0 163.5 -37t123.5 -88l33 108h127v-1093q0 -71 -10.5 -133t-39 -124t-73.5 -106.5t-119.5 -72t-171.5 -27.5q-150 0 -336 84l49 127q153 -64 287 -64q250 0 250 320v72q-48 -52 -122 -88.5t-161 -36.5q-181 0 -276.5 111.5 t-95.5 314.5zM276 422q0 -148 57.5 -217.5t188.5 -69.5q133 0 246 109v639q-112 108 -246 108q-131 0 -188.5 -69.5t-57.5 -216.5v-283z" />
<glyph unicode="h" horiz-adv-x="1146" d="M164 0v1536h164v-535q56 54 140.5 98t184.5 44q173 0 256.5 -106.5t83.5 -278.5v-758h-164v719q0 140 -58 201t-173 61q-71 0 -144 -36t-126 -83v-862h-164z" />
<glyph unicode="i" horiz-adv-x="501" d="M166 1294v209h180v-209h-180zM174 0v1126h164v-1126h-164z" />
<glyph unicode="j" horiz-adv-x="491" d="M-156 -391l39 135q58 -14 101 -14q98 0 139 50.5t41 141.5v1204h164v-1169q0 -189 -79.5 -284t-254.5 -95q-86 0 -150 31zM156 1294v209h180v-209h-180z" />
<glyph unicode="k" horiz-adv-x="1003" d="M164 0v1536h164v-858h151l285 448h180l-330 -508l338 -618h-184l-281 535h-159v-535h-164z" />
<glyph unicode="l" horiz-adv-x="481" d="M164 0v1536h164v-1536h-164z" />
<glyph unicode="m" horiz-adv-x="1753" d="M164 0v1126h131l18 -139q21 24 47.5 46.5t67.5 49.5t95 43.5t112 16.5q207 0 289 -168q23 25 50 48t71.5 53t101.5 48.5t117 18.5q168 0 251.5 -107t83.5 -278v-758h-163v719q0 139 -59 200.5t-169 61.5q-126 0 -252 -117q11 -61 11 -106v-758h-164v719 q0 141 -54.5 201.5t-168.5 60.5q-129 0 -252 -119v-862h-164z" />
<glyph unicode="n" horiz-adv-x="1136" d="M164 0v1126h131l18 -139q21 23 49 46t70 50t97.5 43.5t113.5 16.5q173 0 256.5 -106.5t83.5 -278.5v-758h-164v719q0 140 -58 201t-173 61q-128 0 -260 -119v-862h-164z" />
<glyph unicode="o" horiz-adv-x="1044" d="M113 410v307q0 202 102.5 314t306.5 112q410 0 410 -426v-307q0 -426 -410 -426q-204 0 -306.5 112t-102.5 314zM276 422q0 -148 57 -217.5t189 -69.5t189 69.5t57 217.5v283q0 148 -57 217t-189 69t-189 -69t-57 -217v-283z" />
<glyph unicode="p" horiz-adv-x="1095" d="M164 -414v1540h127l33 -108q48 51 123 88t163 37q181 0 277 -111.5t96 -314.5v-307q0 -203 -96 -314.5t-277 -111.5q-87 0 -160.5 36.5t-121.5 88.5v-523h-164zM328 244q113 -109 245 -109q131 0 188.5 69.5t57.5 217.5v283q0 147 -57.5 216.5t-188.5 69.5 q-133 0 -245 -108v-639z" />
<glyph unicode="q" horiz-adv-x="1085" d="M113 410v307q0 203 95.5 314.5t276.5 111.5q88 0 163.5 -37t123.5 -88l33 108h127v-1540h-164v523q-48 -52 -122 -88.5t-161 -36.5q-181 0 -276.5 111.5t-95.5 314.5zM276 422q0 -148 57.5 -217.5t188.5 -69.5q133 0 246 109v639q-112 108 -246 108q-131 0 -188.5 -69.5 t-57.5 -216.5v-283z" />
<glyph unicode="r" horiz-adv-x="768" d="M164 0v1126h131l18 -178q17 27 43 56t66 62.5t94.5 55t112.5 21.5q39 0 86 -13l-29 -155q-42 10 -86 10q-84 0 -158.5 -53t-113.5 -129v-803h-164z" />
<glyph unicode="s" horiz-adv-x="892" d="M72 92l59 123q177 -86 305 -86q230 0 230 197q0 37 -11.5 65.5t-28.5 47t-50 34t-61.5 25t-78.5 22.5q-45 12 -71 19.5t-66.5 22.5t-64.5 29t-52.5 37.5t-44 50t-26.5 63.5t-11 81q0 158 99 239t262 81q166 0 319 -88l-55 -129q-134 71 -264 71q-203 0 -203 -161 q0 -33 13.5 -59t31.5 -42.5t54.5 -32t63 -24t75.5 -21.5q45 -13 73.5 -22t66.5 -24t61.5 -30.5t49 -39.5t39.5 -52t23.5 -66.5t9.5 -84.5q0 -169 -96.5 -261.5t-286.5 -92.5q-104 0 -203.5 34.5t-160.5 73.5z" />
<glyph unicode="t" horiz-adv-x="849" d="M57 983v129l203 14v226l160 20v-246h309v-143h-309v-659q0 -95 36.5 -137t133.5 -42q64 0 153 27l31 -133q-93 -45 -205 -45q-174 0 -243.5 81.5t-69.5 268.5v639h-199z" />
<glyph unicode="u" horiz-adv-x="1126" d="M154 369v757h163v-718q0 -140 58.5 -201.5t173.5 -61.5q128 0 260 119v862h164v-1126h-131l-19 139q-21 -23 -48.5 -45.5t-70 -49.5t-97.5 -43.5t-113 -16.5q-173 0 -256.5 106.5t-83.5 278.5z" />
<glyph unicode="v" horiz-adv-x="987" d="M47 1126h180l262 -933h9l262 933h180l-346 -1126h-201z" />
<glyph unicode="w" horiz-adv-x="1449" d="M51 1126h176l199 -933h8l219 933h144l219 -933h8l199 933h176l-271 -1126h-208l-191 766h-8l-191 -766h-208z" />
<glyph unicode="x" horiz-adv-x="937" d="M51 0l318 573l-299 553h186l209 -415h8l209 415h186l-299 -553l318 -573h-187l-227 444h-8l-227 -444h-187z" />
<glyph unicode="y" horiz-adv-x="987" d="M51 1126h176l265 -933h8l260 933h178l-471 -1540h-164l131 414h-41z" />
<glyph unicode="z" horiz-adv-x="960" d="M104 0v135l547 840h-518v151h717v-133l-547 -841h578v-152h-777z" />
<glyph unicode="{" horiz-adv-x="835" d="M98 561v152h49q73 0 109.5 52.5t36.5 143.5v355q0 128 54.5 187.5t146.5 59.5h151v-151h-108q-80 0 -80 -103v-348q0 -118 -40 -180t-136 -88v-8q96 -26 136 -88t40 -180v-349q0 -102 80 -102h108v-152h-151q-92 0 -146.5 60t-54.5 188v355q0 91 -36.5 143.5t-109.5 52.5 h-49z" />
<glyph unicode="|" horiz-adv-x="491" d="M164 -238v1809h164v-1809h-164z" />
<glyph unicode="}" horiz-adv-x="835" d="M190 -86h109q80 0 80 102v349q0 118 40 180t136 88v8q-96 26 -136 88t-40 180v348q0 103 -80 103h-109v151h152q92 0 146.5 -59.5t54.5 -187.5v-355q0 -91 36 -143.5t109 -52.5h49v-152h-49q-73 0 -109 -52.5t-36 -143.5v-355q0 -128 -54.5 -188t-146.5 -60h-152v152z " />
<glyph unicode="&#xa1;" horiz-adv-x="458" d="M113 885v225h231v-225h-231zM137 -324l29 1022h125l28 -1022h-182z" />
<glyph unicode="&#xa2;" horiz-adv-x="921" d="M113 508v401q0 348 338 377v148h131v-150q81 -11 142 -29.5t126 -60.5l-49 -131q-135 74 -287 74q-238 0 -238 -193v-471q0 -192 238 -192q139 0 285 73l51 -125q-116 -77 -268 -96v-133h-131v131q-338 26 -338 377z" />
<glyph unicode="&#xa3;" horiz-adv-x="1159" d="M59 666v110l170 29q-34 117 -34 231q0 90 26.5 162t70 118.5t103 77t123 43.5t133.5 13q106 0 200.5 -32t158.5 -75l-62 -133q-155 74 -295 74q-284 0 -284 -256q0 -105 34 -219h476v-143h-441q35 -158 35 -224q0 -179 -127 -282h670v-160h-920v145q33 16 52 27 t47.5 30.5t45 41t33.5 51t25 68.5t8 86q0 69 -41 217h-207z" />
<glyph unicode="&#xa4;" horiz-adv-x="1175" d="M72 254l174 176q-64 98 -64 246t64 246l-174 176l104 104l176 -176q98 64 236 64q137 0 235 -64l176 176l105 -104l-174 -176q63 -97 63 -246t-63 -246l174 -176l-105 -104l-176 176q-98 -64 -235 -64q-138 0 -236 64l-176 -176zM338 676q0 -125 62 -194.5t188 -69.5 t188 69.5t62 194.5t-62 194.5t-188 69.5t-188 -69.5t-62 -194.5z" />
<glyph unicode="&#xa5;" horiz-adv-x="1153" d="M57 1434h195l319 -721h11l319 721h199l-365 -754h234v-148h-305v-112h305v-148h-305v-272h-175v272h-305v148h305v112h-305v148h234z" />
<glyph unicode="&#xa6;" horiz-adv-x="491" d="M164 -238v828h164v-828h-164zM164 743v828h164v-828h-164z" />
<glyph unicode="&#xa7;" horiz-adv-x="1048" d="M78 584q0 160 112 264q-75 93 -75 250q0 170 109.5 261t303.5 91q225 0 394 -109l-72 -133q-156 80 -322 80q-123 0 -183 -49.5t-60 -138.5q0 -58 23.5 -100.5t63 -68.5t91 -45.5t108.5 -36t114 -35.5t108.5 -48.5t91 -69.5t63 -105t23.5 -149q0 -160 -113 -264 q76 -95 76 -250q0 -170 -110 -261t-304 -91q-106 0 -213.5 28t-177.5 81l68 133q168 -80 323 -80q123 0 183.5 49.5t60.5 138.5q0 58 -23.5 100.5t-63 68.5t-91 45.5t-108.5 36t-114 35.5t-108.5 48.5t-91 69.5t-63 105t-23.5 149zM248 598q0 -61 22.5 -107.5t56.5 -74 t85.5 -50.5t99.5 -36.5t109.5 -33.5t103.5 -40q30 30 53 76t23 96q0 61 -22.5 107.5t-56.5 74t-85.5 50.5t-99.5 36.5t-109.5 33.5t-103.5 40q-30 -30 -53 -76t-23 -96z" />
<glyph unicode="&#xa8;" horiz-adv-x="874" d="M158 1298v207h200v-207h-200zM512 1298v207h201v-207h-201z" />
<glyph unicode="&#xa9;" horiz-adv-x="1705" d="M92 782q0 370 202.5 584.5t565.5 214.5t565.5 -214.5t202.5 -584.5t-202.5 -584t-565.5 -214t-565.5 214t-202.5 584zM248 782q0 -305 156 -476t456 -171q301 0 457 171t156 476t-156.5 476.5t-456.5 171.5t-456 -171.5t-156 -476.5zM528 657v248q0 153 82 241.5 t236 88.5q200 0 289 -182l-109 -68q-34 59 -75.5 87t-104.5 28q-97 0 -135.5 -48.5t-38.5 -160.5v-219q0 -112 38.5 -160.5t135.5 -48.5q61 0 104.5 29.5t77.5 87.5l107 -72q-18 -31 -33.5 -53.5t-41 -48t-54 -41.5t-70 -26.5t-90.5 -10.5q-154 0 -236 88.5t-82 240.5z" />
<glyph unicode="&#xaa;" horiz-adv-x="770" d="M106 905q0 76 37 132.5t99.5 86.5t131 44t144.5 14v35q0 108 -135 108q-85 0 -207 -51l-41 102q115 74 248 74q272 0 272 -256v-500h-108l-17 70q-67 -80 -190 -80q-111 0 -172.5 61.5t-61.5 159.5zM240 909q0 -51 35 -80.5t92 -29.5q58 0 99 26t54 62v188 q-53 0 -98.5 -7.5t-88.5 -24.5t-68 -51.5t-25 -82.5z" />
<glyph unicode="&#xab;" horiz-adv-x="1193" d="M98 549v127l506 371v-148l-299 -287l299 -286v-148zM590 549v127l506 371v-148l-299 -287l299 -286v-148z" />
<glyph unicode="&#xac;" horiz-adv-x="1077" d="M20 606v148h1037v-629h-144v481h-893z" />
<glyph unicode="&#xad;" horiz-adv-x="628" d="M72 541v151h485v-151h-485z" />
<glyph unicode="&#xae;" horiz-adv-x="1101" d="M92 989q0 213 121.5 337t337.5 124t337.5 -124t121.5 -337t-121.5 -337t-337.5 -124t-337.5 124t-121.5 337zM195 989q0 -172 90.5 -268t265.5 -96t265.5 96t90.5 268t-90.5 268.5t-265.5 96.5t-265.5 -96.5t-90.5 -268.5zM391 721v541h158q186 0 186 -175 q0 -70 -30.5 -109.5t-75.5 -51.5l129 -205h-94l-119 194h-68v-194h-86zM477 995h78q92 0 92 92q0 51 -25 72t-77 21h-68v-185z" />
<glyph unicode="&#xaf;" horiz-adv-x="759" d="M119 1368v141h522v-141h-522z" />
<glyph unicode="&#xb0;" horiz-adv-x="675" d="M78 1243q0 108 72.5 182t187.5 74q116 0 188 -74t72 -182q0 -107 -72 -180.5t-188 -73.5q-115 0 -187.5 73.5t-72.5 180.5zM199 1243q0 -60 40 -99.5t99 -39.5t98 39.5t39 99.5q0 64 -36.5 102.5t-100.5 38.5q-63 0 -101 -39t-38 -102z" />
<glyph unicode="&#xb1;" horiz-adv-x="980" d="M20 39v147h941v-147h-941zM20 664v147h398v391h147v-391h396v-147h-396v-375h-147v375h-398z" />
<glyph unicode="&#xb2;" horiz-adv-x="829" d="M123 1350q132 94 274 94q138 0 220.5 -69t82.5 -193q0 -50 -23 -98t-59 -87.5t-80 -77t-88.5 -71t-80.5 -65.5t-59 -66t-23 -66h415v-149h-575v119q0 60 31 118t77 101.5t100 89t100 82.5t77 80t31 82q0 60 -40 92t-108 32q-92 0 -211 -65z" />
<glyph unicode="&#xb3;" horiz-adv-x="829" d="M104 586l62 116q47 -29 109 -47t118 -18q92 0 130 42t38 103q0 60 -45 93.5t-119 33.5h-151v146h160q50 0 90.5 31.5t40.5 84.5q0 58 -37.5 92.5t-102.5 34.5q-107 0 -207 -67l-65 119q137 94 274 94q146 0 220.5 -66.5t74.5 -189.5q0 -128 -100 -195q121 -65 121 -213 q0 -59 -16.5 -109t-52 -92t-100 -66t-151.5 -24q-76 0 -158 26.5t-133 70.5z" />
<glyph unicode="&#xb4;" horiz-adv-x="839" d="M276 1262l113 337h178l-170 -337h-121z" />
<glyph unicode="&#xb5;" horiz-adv-x="1126" d="M154 -414v1540h163v-718q0 -140 58.5 -201.5t173.5 -61.5q128 0 260 119v862h164v-1126h-131l-19 139q-21 -23 -48.5 -45.5t-70 -49.5t-97.5 -43.5t-113 -16.5q-107 0 -177 39v-437h-163z" />
<glyph unicode="&#xb6;" horiz-adv-x="1110" d="M51 1036q0 172 108.5 285t303.5 113h610v-148h-147v-1700h-156v1700h-166v-1700h-155v1057h-13q-175 0 -280 106.5t-105 286.5z" />
<glyph unicode="&#xb7;" horiz-adv-x="458" d="M113 520v225h231v-225h-231z" />
<glyph unicode="&#xb8;" horiz-adv-x="851" d="M223 -391l29 94q91 -25 151 -25t78.5 14.5t18.5 43.5q0 59 -80 59q-41 0 -82 -14l-43 43l31 201h114l-41 -136q31 7 64 7q72 0 117 -38.5t45 -121.5q0 -61 -33 -100t-78 -52.5t-102 -13.5q-92 0 -189 39z" />
<glyph unicode="&#xb9;" horiz-adv-x="829" d="M113 1317l290 117h136v-783h168v-149h-541v149h219v623l-221 -86z" />
<glyph unicode="&#xba;" horiz-adv-x="770" d="M104 969v196q0 134 71.5 209.5t209.5 75.5q279 0 279 -285v-196q0 -285 -279 -285q-138 0 -209.5 75.5t-71.5 209.5zM242 977q0 -84 33.5 -124t109.5 -40t108.5 39.5t32.5 124.5v180q0 85 -32.5 124.5t-108.5 39.5t-109.5 -40t-33.5 -124v-180z" />
<glyph unicode="&#xbb;" horiz-adv-x="1193" d="M98 178v148l299 286l-299 287v148l506 -371v-127zM590 178v148l299 286l-299 287v148l506 -371v-127z" />
<glyph unicode="&#xbc;" horiz-adv-x="1994" d="M113 1317l290 117h136v-783h168v-149h-541v149h219v623l-221 -86zM639 -162l526 1757h160l-524 -1757h-162zM1169 195v129l271 608h164l-271 -590h223v248h154v-248h115v-147h-115v-195h-154v195h-387z" />
<glyph unicode="&#xbd;" horiz-adv-x="1996" d="M113 1317l290 117h136v-783h168v-149h-541v149h219v623l-221 -86zM639 -162l526 1757h160l-524 -1757h-162zM1247 848q132 94 275 94q138 0 220.5 -69t82.5 -193q0 -50 -23 -98t-59.5 -87t-80.5 -76.5t-88 -71.5t-80.5 -65.5t-59.5 -65.5t-23 -66h416v-150h-576v119 q0 60 31 118t77 101.5t100 89t100 82.5t77 80t31 82q0 60 -39.5 92.5t-107.5 32.5q-90 0 -211 -66z" />
<glyph unicode="&#xbe;" horiz-adv-x="1994" d="M104 586l62 116q47 -29 109 -47t118 -18q92 0 130 42t38 103q0 60 -45 93.5t-119 33.5h-151v146h160q50 0 90.5 31.5t40.5 84.5q0 58 -37.5 92.5t-102.5 34.5q-107 0 -207 -67l-65 119q137 94 274 94q146 0 220.5 -66.5t74.5 -189.5q0 -128 -100 -195q121 -65 121 -213 q0 -59 -16.5 -109t-52 -92t-100 -66t-151.5 -24q-76 0 -158 26.5t-133 70.5zM639 -162l526 1757h160l-524 -1757h-162zM1169 195v129l271 608h164l-271 -590h223v248h154v-248h115v-147h-115v-195h-154v195h-387z" />
<glyph unicode="&#xbf;" horiz-adv-x="1013" d="M113 18q0 67 23.5 124.5t61 97t83 74.5t91 64t83 58t61 64t23.5 75v154h157v-192q0 -58 -30.5 -109t-75.5 -86t-98.5 -73t-98.5 -71.5t-75.5 -80.5t-30.5 -99q0 -202 274 -202q138 0 307 90l66 -125q-176 -121 -373 -121q-216 0 -332 93t-116 265zM500 885v225h231v-225 h-231z" />
<glyph unicode="&#xc0;" horiz-adv-x="1220" d="M61 0l474 1434h151l475 -1434h-184l-113 356h-508l-112 -356h-183zM397 1907h178l113 -338h-121zM399 518h422l-207 647h-8z" />
<glyph unicode="&#xc1;" horiz-adv-x="1220" d="M61 0l474 1434h151l475 -1434h-184l-113 356h-508l-112 -356h-183zM399 518h422l-207 647h-8zM504 1569l112 338h179l-170 -338h-121z" />
<glyph unicode="&#xc2;" horiz-adv-x="1220" d="M61 0l474 1434h151l475 -1434h-184l-113 356h-508l-112 -356h-183zM299 1569l231 338h160l232 -338h-131l-181 188l-180 -188h-131zM399 518h422l-207 647h-8z" />
<glyph unicode="&#xc3;" horiz-adv-x="1220" d="M61 0l474 1434h151l475 -1434h-184l-113 356h-508l-112 -356h-183zM272 1645q26 81 79.5 137.5t123.5 56.5q51 0 101 -26.5t91 -53t70 -26.5q36 0 59.5 24.5t45.5 67.5l106 -45q-29 -92 -84 -143.5t-121 -51.5q-40 0 -81 16.5t-68 37t-58 37t-55 16.5q-61 0 -104 -93z M399 518h422l-207 647h-8z" />
<glyph unicode="&#xc4;" horiz-adv-x="1220" d="M61 0l474 1434h151l475 -1434h-184l-113 356h-508l-112 -356h-183zM332 1606v206h200v-206h-200zM399 518h422l-207 647h-8zM686 1606v206h201v-206h-201z" />
<glyph unicode="&#xc5;" horiz-adv-x="1220" d="M61 0l474 1434h151l475 -1434h-184l-113 356h-508l-112 -356h-183zM399 518h422l-207 647h-8zM406 1741q0 94 57 148.5t149 54.5t149.5 -54.5t57.5 -148.5q0 -95 -57 -149t-150 -54t-149.5 54t-56.5 149zM510 1741q0 -46 27.5 -73.5t74.5 -27.5t75 27.5t28 73.5t-28 73 t-75 27t-74.5 -27t-27.5 -73z" />
<glyph unicode="&#xc6;" horiz-adv-x="1640" d="M59 0l480 1434h972v-160h-772l156 -463h571v-160h-524l150 -491h419v-160h-534l-113 356h-508l-112 -356h-185zM399 518h422l-207 647h-8z" />
<glyph unicode="&#xc7;" horiz-adv-x="1095" d="M143 477v479q0 230 120.5 362t354.5 132q306 0 420 -270l-141 -72q-35 59 -65.5 93.5t-84.5 58.5t-129 24q-159 0 -230 -88t-71 -260v-438q0 -172 71 -260t230 -88q92 0 164.5 47.5t114.5 132.5l141 -76q-116 -260 -397 -270l-29 -95q32 7 64 7q72 0 117 -38.5t45 -121.5 q0 -61 -33 -100t-78 -52.5t-102 -13.5q-91 0 -189 39l29 94q91 -25 151 -25t78.5 14.5t18.5 43.5q0 59 -80 59q-41 0 -82 -14l-43 43l24 166q-193 23 -291 150.5t-98 336.5z" />
<glyph unicode="&#xc8;" horiz-adv-x="1054" d="M195 0v1434h731v-160h-557v-463h512v-160h-512v-491h557v-160h-731zM381 1907h178l113 -338h-121z" />
<glyph unicode="&#xc9;" horiz-adv-x="1054" d="M195 0v1434h731v-160h-557v-463h512v-160h-512v-491h557v-160h-731zM494 1569l112 338h178l-170 -338h-120z" />
<glyph unicode="&#xca;" horiz-adv-x="1054" d="M195 0v1434h731v-160h-557v-463h512v-160h-512v-491h557v-160h-731zM244 1569l231 338h160l231 -338h-131l-180 188l-180 -188h-131z" />
<glyph unicode="&#xcb;" horiz-adv-x="1054" d="M195 0v1434h731v-160h-557v-463h512v-160h-512v-491h557v-160h-731zM287 1606v206h200v-206h-200zM641 1606v206h201v-206h-201z" />
<glyph unicode="&#xcc;" horiz-adv-x="563" d="M84 1907h178l113 -338h-121zM195 0v1434h174v-1434h-174z" />
<glyph unicode="&#xcd;" horiz-adv-x="563" d="M170 1569l113 338h178l-170 -338h-121zM195 0v1434h174v-1434h-174z" />
<glyph unicode="&#xce;" horiz-adv-x="563" d="M-25 1569l232 338h160l231 -338h-131l-180 188l-181 -188h-131zM195 0v1434h174v-1434h-174z" />
<glyph unicode="&#xcf;" horiz-adv-x="563" d="M6 1606v206h201v-206h-201zM195 0v1434h174v-1434h-174zM360 1606v206h201v-206h-201z" />
<glyph unicode="&#xd0;" horiz-adv-x="1302" d="M68 668v141h127v625h440q254 0 393 -178t139 -535q0 -329 -135 -525t-350 -196h-487v668h-127zM369 160h237q77 0 137.5 21.5t102 62t70 91.5t44.5 117t22.5 132t6.5 143q0 85 -9.5 158t-35 147t-67 125.5t-111 84t-160.5 32.5h-237v-465h344v-141h-344v-508z" />
<glyph unicode="&#xd1;" horiz-adv-x="1366" d="M195 0v1434h133l669 -1078h11v1078h163v-1434h-151l-651 1059h-11v-1059h-163zM356 1645q26 81 79.5 137.5t123.5 56.5q51 0 101 -26.5t91 -53t70 -26.5q36 0 59.5 24.5t45.5 67.5l106 -45q-29 -92 -84 -143.5t-121 -51.5q-40 0 -81 16.5t-68 37t-58 37t-55 16.5 q-61 0 -104 -93z" />
<glyph unicode="&#xd2;" horiz-adv-x="1236" d="M143 477v479q0 230 120.5 362t354.5 132t355 -132t121 -362v-479q0 -230 -121 -361.5t-355 -131.5t-354.5 131.5t-120.5 361.5zM317 498q0 -173 70.5 -260.5t230.5 -87.5t231 88t71 260v438q0 172 -71 260t-231 88t-230.5 -87.5t-70.5 -260.5v-438zM399 1907h179 l112 -338h-121z" />
<glyph unicode="&#xd3;" horiz-adv-x="1236" d="M143 477v479q0 230 120.5 362t354.5 132t355 -132t121 -362v-479q0 -230 -121 -361.5t-355 -131.5t-354.5 131.5t-120.5 361.5zM317 498q0 -173 70.5 -260.5t230.5 -87.5t231 88t71 260v438q0 172 -71 260t-231 88t-230.5 -87.5t-70.5 -260.5v-438zM555 1569l113 338h178 l-170 -338h-121z" />
<glyph unicode="&#xd4;" horiz-adv-x="1236" d="M143 477v479q0 230 120.5 362t354.5 132t355 -132t121 -362v-479q0 -230 -121 -361.5t-355 -131.5t-354.5 131.5t-120.5 361.5zM313 1569l232 338h160l231 -338h-131l-180 188l-181 -188h-131zM317 498q0 -173 70.5 -260.5t230.5 -87.5t231 88t71 260v438q0 172 -71 260 t-231 88t-230.5 -87.5t-70.5 -260.5v-438z" />
<glyph unicode="&#xd5;" horiz-adv-x="1236" d="M143 477v479q0 230 120.5 362t354.5 132t355 -132t121 -362v-479q0 -230 -121 -361.5t-355 -131.5t-354.5 131.5t-120.5 361.5zM289 1645q26 81 79.5 137.5t123.5 56.5q51 0 101 -26.5t91 -53t70 -26.5q36 0 59 24.5t45 67.5l107 -45q-29 -92 -84 -143.5t-121 -51.5 q-40 0 -81 16.5t-68 37t-58 37t-55 16.5q-62 0 -105 -93zM317 498q0 -173 70.5 -260.5t230.5 -87.5t231 88t71 260v438q0 172 -71 260t-231 88t-230.5 -87.5t-70.5 -260.5v-438z" />
<glyph unicode="&#xd6;" horiz-adv-x="1236" d="M143 477v479q0 230 120.5 362t354.5 132t355 -132t121 -362v-479q0 -230 -121 -361.5t-355 -131.5t-354.5 131.5t-120.5 361.5zM317 498q0 -173 70.5 -260.5t230.5 -87.5t231 88t71 260v438q0 172 -71 260t-231 88t-230.5 -87.5t-70.5 -260.5v-438zM348 1606v206h201 v-206h-201zM702 1606v206h201v-206h-201z" />
<glyph unicode="&#xd7;" horiz-adv-x="983" d="M98 319l289 287l-289 289l105 104q30 -31 289 -288l290 288l105 -104l-289 -289q65 -67 289 -287l-107 -106l-288 287l-287 -287z" />
<glyph unicode="&#xd8;" horiz-adv-x="1236" d="M143 477v479q0 230 120.5 362t354.5 132q122 0 209 -37l37 94h137l-65 -157q158 -125 158 -394v-479q0 -230 -121 -361.5t-355 -131.5q-124 0 -219 36l-37 -94h-137l66 162q-148 127 -148 389zM317 498q0 -147 48 -230l399 989q-66 27 -146 27q-160 0 -230.5 -87.5 t-70.5 -260.5v-438zM463 178q60 -28 155 -28q160 0 231 88t71 260v438q0 147 -54 238z" />
<glyph unicode="&#xd9;" horiz-adv-x="1323" d="M195 451v983h174v-963q0 -76 13.5 -132t46 -100t90.5 -66.5t143 -22.5t143 22.5t90 66.5t45.5 100t13.5 132v963h174v-983q0 -226 -118 -346.5t-348 -120.5t-348.5 120.5t-118.5 346.5zM471 1907h178l113 -338h-121z" />
<glyph unicode="&#xda;" horiz-adv-x="1323" d="M195 451v983h174v-963q0 -76 13.5 -132t46 -100t90.5 -66.5t143 -22.5t143 22.5t90 66.5t45.5 100t13.5 132v963h174v-983q0 -226 -118 -346.5t-348 -120.5t-348.5 120.5t-118.5 346.5zM600 1569l113 338h178l-170 -338h-121z" />
<glyph unicode="&#xdb;" horiz-adv-x="1323" d="M195 451v983h174v-963q0 -76 13.5 -132t46 -100t90.5 -66.5t143 -22.5t143 22.5t90 66.5t45.5 100t13.5 132v963h174v-983q0 -226 -118 -346.5t-348 -120.5t-348.5 120.5t-118.5 346.5zM360 1569l232 338h160l231 -338h-131l-180 188l-180 -188h-132z" />
<glyph unicode="&#xdc;" horiz-adv-x="1323" d="M195 451v983h174v-963q0 -76 13.5 -132t46 -100t90.5 -66.5t143 -22.5t143 22.5t90 66.5t45.5 100t13.5 132v963h174v-983q0 -226 -118 -346.5t-348 -120.5t-348.5 120.5t-118.5 346.5zM391 1606v206h201v-206h-201zM745 1606v206h201v-206h-201z" />
<glyph unicode="&#xdd;" horiz-adv-x="1153" d="M57 1434h195l319 -721h11l319 721h199l-436 -902v-532h-175v532zM489 1569l113 338h178l-170 -338h-121z" />
<glyph unicode="&#xde;" horiz-adv-x="1179" d="M195 0v1434h174v-209h213q120 0 205.5 -20.5t151.5 -70.5t99 -140t33 -222q0 -233 -121.5 -345t-347.5 -112h-233v-315h-174zM369 475h235q152 0 220.5 74.5t68.5 230.5q0 161 -71.5 223t-246.5 62h-206v-590z" />
<glyph unicode="&#xdf;" horiz-adv-x="1224" d="M164 0v1143q0 185 113 295t313 110q196 0 313 -92t117 -260q0 -107 -41.5 -169.5t-110.5 -100.5q93 -26 151 -104t58 -201v-213q0 -186 -112.5 -297t-331.5 -111h-191v152h191q82 0 138.5 20t86.5 58t42.5 84t12.5 108v166q0 136 -76 196t-225 60h-96v151h96 q244 0 244 201t-266 201q-71 0 -123.5 -19t-82 -53.5t-43 -75.5t-13.5 -90v-1159h-164z" />
<glyph unicode="&#xe0;" horiz-adv-x="1069" d="M111 307q0 80 28.5 146.5t78 111.5t112 78.5t136.5 52t144.5 27t141.5 8.5v68q0 192 -238 192q-136 0 -303 -76l-49 136q170 92 352 92q401 0 401 -379v-764h-131l-18 119q-114 -135 -307 -135q-162 0 -255 90.5t-93 232.5zM274 307q0 -89 60.5 -139.5t150.5 -50.5 q101 0 173.5 49.5t95.5 112.5v321q-59 0 -113 -5.5t-109.5 -18t-100.5 -35t-81 -53.5t-56 -77.5t-20 -103.5zM332 1599h178l113 -337h-121z" />
<glyph unicode="&#xe1;" horiz-adv-x="1069" d="M111 307q0 80 28.5 146.5t78 111.5t112 78.5t136.5 52t144.5 27t141.5 8.5v68q0 192 -238 192q-136 0 -303 -76l-49 136q170 92 352 92q401 0 401 -379v-764h-131l-18 119q-114 -135 -307 -135q-162 0 -255 90.5t-93 232.5zM274 307q0 -89 60.5 -139.5t150.5 -50.5 q101 0 173.5 49.5t95.5 112.5v321q-59 0 -113 -5.5t-109.5 -18t-100.5 -35t-81 -53.5t-56 -77.5t-20 -103.5zM444 1262l113 337h178l-170 -337h-121z" />
<glyph unicode="&#xe2;" horiz-adv-x="1069" d="M111 307q0 80 28.5 146.5t78 111.5t112 78.5t136.5 52t144.5 27t141.5 8.5v68q0 192 -238 192q-136 0 -303 -76l-49 136q170 92 352 92q401 0 401 -379v-764h-131l-18 119q-114 -135 -307 -135q-162 0 -255 90.5t-93 232.5zM223 1262l232 337h159l232 -337h-131l-180 188 l-181 -188h-131zM274 307q0 -89 60.5 -139.5t150.5 -50.5q101 0 173.5 49.5t95.5 112.5v321q-59 0 -113 -5.5t-109.5 -18t-100.5 -35t-81 -53.5t-56 -77.5t-20 -103.5z" />
<glyph unicode="&#xe3;" horiz-adv-x="1069" d="M111 307q0 80 28.5 146.5t78 111.5t112 78.5t136.5 52t144.5 27t141.5 8.5v68q0 192 -238 192q-136 0 -303 -76l-49 136q170 92 352 92q401 0 401 -379v-764h-131l-18 119q-114 -135 -307 -135q-162 0 -255 90.5t-93 232.5zM197 1337q26 81 79 138t123 57q51 0 101.5 -27 t91.5 -53.5t70 -26.5q36 0 59 24.5t45 68.5l106 -45q-29 -92 -83.5 -143.5t-120.5 -51.5q-51 0 -101 26.5t-91 53t-70 26.5q-62 0 -105 -92zM274 307q0 -89 60.5 -139.5t150.5 -50.5q101 0 173.5 49.5t95.5 112.5v321q-59 0 -113 -5.5t-109.5 -18t-100.5 -35t-81 -53.5 t-56 -77.5t-20 -103.5z" />
<glyph unicode="&#xe4;" horiz-adv-x="1069" d="M111 307q0 80 28.5 146.5t78 111.5t112 78.5t136.5 52t144.5 27t141.5 8.5v68q0 192 -238 192q-136 0 -303 -76l-49 136q170 92 352 92q401 0 401 -379v-764h-131l-18 119q-114 -135 -307 -135q-162 0 -255 90.5t-93 232.5zM256 1298v207h201v-207h-201zM274 307 q0 -89 60.5 -139.5t150.5 -50.5q101 0 173.5 49.5t95.5 112.5v321q-59 0 -113 -5.5t-109.5 -18t-100.5 -35t-81 -53.5t-56 -77.5t-20 -103.5zM610 1298v207h201v-207h-201z" />
<glyph unicode="&#xe5;" horiz-adv-x="1069" d="M111 307q0 80 28.5 146.5t78 111.5t112 78.5t136.5 52t144.5 27t141.5 8.5v68q0 192 -238 192q-136 0 -303 -76l-49 136q170 92 352 92q401 0 401 -379v-764h-131l-18 119q-114 -135 -307 -135q-162 0 -255 90.5t-93 232.5zM274 307q0 -89 60.5 -139.5t150.5 -50.5 q101 0 173.5 49.5t95.5 112.5v321q-59 0 -113 -5.5t-109.5 -18t-100.5 -35t-81 -53.5t-56 -77.5t-20 -103.5zM328 1434q0 94 57.5 148t149.5 54t149 -54t57 -148q0 -95 -56.5 -149t-149.5 -54t-150 54t-57 149zM432 1434q0 -46 28 -73.5t75 -27.5t74.5 27.5t27.5 73.5 t-27.5 73t-74.5 27t-75 -27t-28 -73z" />
<glyph unicode="&#xe6;" horiz-adv-x="1652" d="M111 307q0 80 28.5 146t78 111t112 78.5t136.5 52t144.5 27.5t141.5 9v68q0 192 -238 192q-136 0 -303 -76l-49 136q170 92 352 92q120 0 198.5 -33.5t131.5 -101.5q109 135 309 135q202 0 299.5 -110.5t97.5 -315.5v-211h-635v-168q0 -91 59.5 -147t188.5 -56 q151 0 291 96l68 -125q-61 -55 -160 -88.5t-199 -33.5q-256 0 -350 161q-67 -81 -149.5 -121t-204.5 -40q-162 0 -255 90.5t-93 232.5zM274 307q0 -89 60.5 -139.5t150.5 -50.5q100 0 173 51.5t96 114.5v317q-70 0 -134 -8t-129 -28.5t-111.5 -52.5t-76 -84.5t-29.5 -119.5z M915 641h476v64q0 147 -55.5 216.5t-182.5 69.5t-182.5 -69.5t-55.5 -216.5v-64z" />
<glyph unicode="&#xe7;" horiz-adv-x="921" d="M113 410v307q0 202 102.5 314t306.5 112q227 0 346 -176l-108 -99q-53 64 -103 93.5t-135 29.5q-132 0 -189 -69t-57 -217v-283q0 -148 57 -217.5t189 -69.5q72 0 128.5 27t113.5 92l106 -90q-60 -87 -136 -131.5t-189 -48.5l-29 -95q32 7 64 7q72 0 116.5 -38.5 t44.5 -121.5q0 -61 -33 -100t-78 -52.5t-102 -13.5q-90 0 -188 39l29 94q91 -25 151 -25t78 14.5t18 43.5q0 59 -79 59q-41 0 -82 -14l-43 43l24 166q-161 23 -242 132t-81 288z" />
<glyph unicode="&#xe8;" horiz-adv-x="1013" d="M113 373v344q0 200 101.5 313t299.5 113q202 0 299.5 -110.5t97.5 -315.5v-211h-635v-168q0 -91 59.5 -147t188.5 -56q151 0 291 96l68 -125q-61 -55 -160 -88.5t-199 -33.5q-203 0 -307 101.5t-104 287.5zM276 641h476v64q0 147 -55.5 216.5t-182.5 69.5t-182.5 -69.5 t-55.5 -216.5v-64zM324 1599h178l112 -337h-120z" />
<glyph unicode="&#xe9;" horiz-adv-x="1013" d="M113 373v344q0 200 101.5 313t299.5 113q202 0 299.5 -110.5t97.5 -315.5v-211h-635v-168q0 -91 59.5 -147t188.5 -56q151 0 291 96l68 -125q-61 -55 -160 -88.5t-199 -33.5q-203 0 -307 101.5t-104 287.5zM276 641h476v64q0 147 -55.5 216.5t-182.5 69.5t-182.5 -69.5 t-55.5 -216.5v-64zM424 1262l113 337h178l-170 -337h-121z" />
<glyph unicode="&#xea;" horiz-adv-x="1013" d="M113 373v344q0 200 101.5 313t299.5 113q202 0 299.5 -110.5t97.5 -315.5v-211h-635v-168q0 -91 59.5 -147t188.5 -56q151 0 291 96l68 -125q-61 -55 -160 -88.5t-199 -33.5q-203 0 -307 101.5t-104 287.5zM203 1262l231 337h160l231 -337h-131l-180 188l-180 -188h-131z M276 641h476v64q0 147 -55.5 216.5t-182.5 69.5t-182.5 -69.5t-55.5 -216.5v-64z" />
<glyph unicode="&#xeb;" horiz-adv-x="1013" d="M113 373v344q0 200 101.5 313t299.5 113q202 0 299.5 -110.5t97.5 -315.5v-211h-635v-168q0 -91 59.5 -147t188.5 -56q151 0 291 96l68 -125q-61 -55 -160 -88.5t-199 -33.5q-203 0 -307 101.5t-104 287.5zM242 1298v207h200v-207h-200zM276 641h476v64 q0 147 -55.5 216.5t-182.5 69.5t-182.5 -69.5t-55.5 -216.5v-64zM596 1298v207h201v-207h-201z" />
<glyph unicode="&#xec;" horiz-adv-x="501" d="M53 1599h178l113 -337h-121zM174 0v1126h164v-1126h-164z" />
<glyph unicode="&#xed;" horiz-adv-x="501" d="M164 1262l112 337h179l-170 -337h-121zM174 0v1126h164v-1126h-164z" />
<glyph unicode="&#xee;" horiz-adv-x="501" d="M-55 1262l231 337h160l231 -337h-131l-180 188l-180 -188h-131zM174 0v1126h164v-1126h-164z" />
<glyph unicode="&#xef;" horiz-adv-x="501" d="M-18 1298v207h200v-207h-200zM174 0v1126h164v-1126h-164zM336 1298v207h201v-207h-201z" />
<glyph unicode="&#xf0;" horiz-adv-x="1044" d="M113 389v217q0 192 105.5 299t303.5 107q151 0 250 -74q-3 184 -88 279l-131 -132l-90 95l104 108q-56 17 -114 17q-82 0 -181 -31l-41 125q100 51 224 51q135 0 227 -47l125 129l96 -92l-110 -113q139 -145 139 -428v-510q0 -196 -103.5 -300.5t-306.5 -104.5 q-199 0 -304 107t-105 298zM276 401q0 -137 59.5 -201.5t186.5 -64.5t186.5 64.5t59.5 201.5v193q0 137 -59 201.5t-187 64.5q-127 0 -186.5 -64.5t-59.5 -201.5v-193z" />
<glyph unicode="&#xf1;" horiz-adv-x="1136" d="M164 0v1126h131l18 -139q21 23 49 46t70 50t97.5 43.5t113.5 16.5q173 0 256.5 -106.5t83.5 -278.5v-758h-164v719q0 140 -58 201t-173 61q-128 0 -260 -119v-862h-164zM225 1337q26 81 79.5 138t123.5 57q51 0 101 -27t91 -53.5t70 -26.5q36 0 59.5 25t45.5 68l106 -45 q-29 -92 -84 -143.5t-121 -51.5q-51 0 -101 26.5t-91 53t-70 26.5q-61 0 -104 -92z" />
<glyph unicode="&#xf2;" horiz-adv-x="1044" d="M113 410v307q0 202 102.5 314t306.5 112q410 0 410 -426v-307q0 -426 -410 -426q-204 0 -306.5 112t-102.5 314zM276 422q0 -148 57 -217.5t189 -69.5t189 69.5t57 217.5v283q0 148 -57 217t-189 69t-189 -69t-57 -217v-283zM326 1599h178l112 -337h-120z" />
<glyph unicode="&#xf3;" horiz-adv-x="1044" d="M113 410v307q0 202 102.5 314t306.5 112q410 0 410 -426v-307q0 -426 -410 -426q-204 0 -306.5 112t-102.5 314zM276 422q0 -148 57 -217.5t189 -69.5t189 69.5t57 217.5v283q0 148 -57 217t-189 69t-189 -69t-57 -217v-283zM442 1262l113 337h178l-170 -337h-121z" />
<glyph unicode="&#xf4;" horiz-adv-x="1044" d="M113 410v307q0 202 102.5 314t306.5 112q410 0 410 -426v-307q0 -426 -410 -426q-204 0 -306.5 112t-102.5 314zM215 1262l231 337h160l232 -337h-131l-181 188l-180 -188h-131zM276 422q0 -148 57 -217.5t189 -69.5t189 69.5t57 217.5v283q0 148 -57 217t-189 69 t-189 -69t-57 -217v-283z" />
<glyph unicode="&#xf5;" horiz-adv-x="1044" d="M113 410v307q0 202 102.5 314t306.5 112q410 0 410 -426v-307q0 -426 -410 -426q-204 0 -306.5 112t-102.5 314zM190 1337q26 81 79.5 138t123.5 57q51 0 101 -27t91 -53.5t70 -26.5q36 0 59.5 25t45.5 68l106 -45q-29 -92 -83.5 -143.5t-120.5 -51.5q-40 0 -81 16.5 t-68.5 36.5t-58.5 36.5t-55 16.5q-61 0 -104 -92zM276 422q0 -148 57 -217.5t189 -69.5t189 69.5t57 217.5v283q0 148 -57 217t-189 69t-189 -69t-57 -217v-283z" />
<glyph unicode="&#xf6;" horiz-adv-x="1044" d="M113 410v307q0 202 102.5 314t306.5 112q410 0 410 -426v-307q0 -426 -410 -426q-204 0 -306.5 112t-102.5 314zM252 1298v207h201v-207h-201zM276 422q0 -148 57 -217.5t189 -69.5t189 69.5t57 217.5v283q0 148 -57 217t-189 69t-189 -69t-57 -217v-283zM606 1298v207 h201v-207h-201z" />
<glyph unicode="&#xf7;" horiz-adv-x="980" d="M20 532v148h941v-148h-941zM358 285q0 59 32.5 94t98.5 35t99 -35t33 -94q0 -60 -33 -94.5t-99 -34.5t-98.5 34.5t-32.5 94.5zM358 930q0 59 32.5 94t98.5 35t99 -35t33 -94q0 -60 -33 -94.5t-99 -34.5t-98.5 34.5t-32.5 94.5z" />
<glyph unicode="&#xf8;" horiz-adv-x="1044" d="M113 410v307q0 202 102.5 314t306.5 112q83 0 160 -23l33 80h127l-54 -131q144 -106 144 -352v-307q0 -426 -410 -426q-88 0 -162 22l-32 -80h-127l53 133q-141 109 -141 351zM276 422q0 -136 43 -201l306 756q-41 14 -103 14q-132 0 -189 -69t-57 -217v-283zM418 150 q44 -15 104 -15q132 0 189 69.5t57 217.5v283q0 132 -45 200z" />
<glyph unicode="&#xf9;" horiz-adv-x="1126" d="M154 369v757h163v-718q0 -140 58.5 -201.5t173.5 -61.5q128 0 260 119v862h164v-1126h-131l-19 139q-21 -23 -48.5 -45.5t-70 -49.5t-97.5 -43.5t-113 -16.5q-173 0 -256.5 106.5t-83.5 278.5zM367 1599h178l112 -337h-120z" />
<glyph unicode="&#xfa;" horiz-adv-x="1126" d="M154 369v757h163v-718q0 -140 58.5 -201.5t173.5 -61.5q128 0 260 119v862h164v-1126h-131l-19 139q-21 -23 -48.5 -45.5t-70 -49.5t-97.5 -43.5t-113 -16.5q-173 0 -256.5 106.5t-83.5 278.5zM500 1262l112 337h179l-170 -337h-121z" />
<glyph unicode="&#xfb;" horiz-adv-x="1126" d="M154 369v757h163v-718q0 -140 58.5 -201.5t173.5 -61.5q128 0 260 119v862h164v-1126h-131l-19 139q-21 -23 -48.5 -45.5t-70 -49.5t-97.5 -43.5t-113 -16.5q-173 0 -256.5 106.5t-83.5 278.5zM262 1262l232 337h159l232 -337h-131l-181 188l-180 -188h-131z" />
<glyph unicode="&#xfc;" horiz-adv-x="1126" d="M154 369v757h163v-718q0 -140 58.5 -201.5t173.5 -61.5q128 0 260 119v862h164v-1126h-131l-19 139q-21 -23 -48.5 -45.5t-70 -49.5t-97.5 -43.5t-113 -16.5q-173 0 -256.5 106.5t-83.5 278.5zM301 1298v207h201v-207h-201zM655 1298v207h201v-207h-201z" />
<glyph unicode="&#xfd;" horiz-adv-x="987" d="M51 1126h176l265 -933h8l260 933h178l-471 -1540h-164l131 414h-41zM422 1262l113 337h178l-170 -337h-121z" />
<glyph unicode="&#xfe;" horiz-adv-x="1095" d="M164 -414v1950h164v-514q48 50 122 85.5t160 35.5q181 0 277 -111.5t96 -314.5v-307q0 -203 -96 -314.5t-277 -111.5q-87 0 -160.5 36.5t-121.5 88.5v-523h-164zM328 244q113 -109 245 -109q131 0 188.5 69.5t57.5 217.5v283q0 147 -57.5 216.5t-188.5 69.5 q-133 0 -245 -108v-639z" />
<glyph unicode="&#xff;" horiz-adv-x="987" d="M51 1126h176l265 -933h8l260 933h178l-471 -1540h-164l131 414h-41zM231 1298v207h201v-207h-201zM586 1298v207h200v-207h-200z" />
<glyph unicode="&#x100;" horiz-adv-x="1220" d="M61 0l474 1434h151l475 -1434h-184l-113 356h-508l-112 -356h-183zM352 1675v142h522v-142h-522zM399 518h422l-207 647h-8z" />
<glyph unicode="&#x101;" horiz-adv-x="1069" d="M111 307q0 80 28.5 146.5t78 111.5t112 78.5t136.5 52t144.5 27t141.5 8.5v68q0 192 -238 192q-136 0 -303 -76l-49 136q170 92 352 92q401 0 401 -379v-764h-131l-18 119q-114 -135 -307 -135q-162 0 -255 90.5t-93 232.5zM274 307q0 -89 60.5 -139.5t150.5 -50.5 q101 0 173.5 49.5t95.5 112.5v321q-59 0 -113 -5.5t-109.5 -18t-100.5 -35t-81 -53.5t-56 -77.5t-20 -103.5zM297 1368v141h522v-141h-522z" />
<glyph unicode="&#x102;" horiz-adv-x="1220" d="M61 0l474 1434h151l475 -1434h-184l-113 356h-508l-112 -356h-183zM322 1851v31h127v-24q0 -83 39 -120.5t124 -37.5t124.5 37.5t39.5 120.5v24h127v-31q0 -145 -80 -210.5t-211 -65.5q-62 0 -112.5 14.5t-91.5 45.5t-63.5 86t-22.5 130zM399 518h422l-207 647h-8z" />
<glyph unicode="&#x103;" horiz-adv-x="1069" d="M111 307q0 80 28.5 146.5t78 111.5t112 78.5t136.5 52t144.5 27t141.5 8.5v68q0 192 -238 192q-136 0 -303 -76l-49 136q170 92 352 92q401 0 401 -379v-764h-131l-18 119q-114 -135 -307 -135q-162 0 -255 90.5t-93 232.5zM250 1544v31h127v-25q0 -83 39.5 -120 t124.5 -37t124.5 37t39.5 120v25h126v-31q0 -75 -22.5 -130t-63.5 -86t-91.5 -45.5t-112.5 -14.5q-131 0 -211 65.5t-80 210.5zM274 307q0 -89 60.5 -139.5t150.5 -50.5q101 0 173.5 49.5t95.5 112.5v321q-59 0 -113 -5.5t-109.5 -18t-100.5 -35t-81 -53.5t-56 -77.5 t-20 -103.5z" />
<glyph unicode="&#x104;" horiz-adv-x="1220" d="M61 0l474 1434h151l475 -1434q-87 -39 -145 -101.5t-58 -123.5q0 -40 20 -63t60 -23q41 0 92 22l29 -94q-67 -47 -160 -47q-88 0 -138 50.5t-50 125.5q0 83 61.5 151t159.5 103h-55l-113 356h-508l-112 -356h-183zM399 518h422l-207 647h-8z" />
<glyph unicode="&#x105;" horiz-adv-x="1069" d="M111 307q0 80 28.5 146.5t78 111.5t112 78.5t136.5 52t144.5 27t141.5 8.5v68q0 192 -238 192q-136 0 -303 -76l-49 136q170 92 352 92q401 0 401 -379v-764q-87 -39 -144.5 -101.5t-57.5 -123.5q0 -40 20 -63t60 -23q41 0 92 22l28 -94q-67 -47 -159 -47 q-88 0 -138.5 50.5t-50.5 125.5q0 83 61.5 151t157.5 103l-18 119q-114 -135 -307 -135q-162 0 -255 90.5t-93 232.5zM274 307q0 -89 60.5 -139.5t150.5 -50.5q101 0 173.5 49.5t95.5 112.5v321q-59 0 -113 -5.5t-109.5 -18t-100.5 -35t-81 -53.5t-56 -77.5t-20 -103.5z" />
<glyph unicode="&#x106;" horiz-adv-x="1095" d="M143 477v479q0 230 120.5 362t354.5 132q306 0 420 -270l-141 -72q-35 59 -65.5 93.5t-84.5 58.5t-129 24q-159 0 -230 -88t-71 -260v-438q0 -172 71 -260t230 -88q92 0 164.5 47.5t114.5 132.5l141 -76q-121 -270 -420 -270q-234 0 -354.5 131.5t-120.5 361.5zM512 1569 l113 338h178l-170 -338h-121z" />
<glyph unicode="&#x107;" horiz-adv-x="921" d="M113 410v307q0 202 102.5 314t306.5 112q227 0 346 -176l-108 -99q-53 64 -103 93.5t-135 29.5q-132 0 -189 -69t-57 -217v-283q0 -148 57 -217.5t189 -69.5q72 0 128.5 27t113.5 92l106 -90q-62 -90 -143.5 -135t-204.5 -45q-204 0 -306.5 112t-102.5 314zM432 1262 l113 337h178l-170 -337h-121z" />
<glyph unicode="&#x108;" horiz-adv-x="1095" d="M143 477v479q0 230 120.5 362t354.5 132q306 0 420 -270l-141 -72q-35 59 -65.5 93.5t-84.5 58.5t-129 24q-159 0 -230 -88t-71 -260v-438q0 -172 71 -260t230 -88q92 0 164.5 47.5t114.5 132.5l141 -76q-121 -270 -420 -270q-234 0 -354.5 131.5t-120.5 361.5zM309 1569 l232 338h159l232 -338h-131l-180 188l-181 -188h-131z" />
<glyph unicode="&#x109;" horiz-adv-x="921" d="M113 410v307q0 202 102.5 314t306.5 112q227 0 346 -176l-108 -99q-53 64 -103 93.5t-135 29.5q-132 0 -189 -69t-57 -217v-283q0 -148 57 -217.5t189 -69.5q72 0 128.5 27t113.5 92l106 -90q-62 -90 -143.5 -135t-204.5 -45q-204 0 -306.5 112t-102.5 314zM221 1262 l232 337h159l232 -337h-131l-181 188l-180 -188h-131z" />
<glyph unicode="&#x10a;" horiz-adv-x="1095" d="M143 477v479q0 230 120.5 362t354.5 132q306 0 420 -270l-141 -72q-35 59 -65.5 93.5t-84.5 58.5t-129 24q-159 0 -230 -88t-71 -260v-438q0 -172 71 -260t230 -88q92 0 164.5 47.5t114.5 132.5l141 -76q-121 -270 -420 -270q-234 0 -354.5 131.5t-120.5 361.5zM532 1602 v208h183v-208h-183z" />
<glyph unicode="&#x10b;" horiz-adv-x="921" d="M113 410v307q0 202 102.5 314t306.5 112q227 0 346 -176l-108 -99q-53 64 -103 93.5t-135 29.5q-132 0 -189 -69t-57 -217v-283q0 -148 57 -217.5t189 -69.5q72 0 128.5 27t113.5 92l106 -90q-62 -90 -143.5 -135t-204.5 -45q-204 0 -306.5 112t-102.5 314zM436 1294v209 h182v-209h-182z" />
<glyph unicode="&#x10c;" horiz-adv-x="1095" d="M143 477v479q0 230 120.5 362t354.5 132q306 0 420 -270l-141 -72q-35 59 -65.5 93.5t-84.5 58.5t-129 24q-159 0 -230 -88t-71 -260v-438q0 -172 71 -260t230 -88q92 0 164.5 47.5t114.5 132.5l141 -76q-121 -270 -420 -270q-234 0 -354.5 131.5t-120.5 361.5zM315 1907 h131l181 -189l180 189h131l-231 -338h-160z" />
<glyph unicode="&#x10d;" horiz-adv-x="921" d="M113 410v307q0 202 102.5 314t306.5 112q227 0 346 -176l-108 -99q-53 64 -103 93.5t-135 29.5q-132 0 -189 -69t-57 -217v-283q0 -148 57 -217.5t189 -69.5q72 0 128.5 27t113.5 92l106 -90q-62 -90 -143.5 -135t-204.5 -45q-204 0 -306.5 112t-102.5 314zM213 1599h131 l180 -188l181 188h131l-232 -337h-160z" />
<glyph unicode="&#x10e;" horiz-adv-x="1302" d="M195 0v1434h440q254 0 393 -178t139 -535q0 -329 -135 -525t-350 -196h-487zM270 1907h131l181 -189l180 189h131l-231 -338h-160zM369 160h237q77 0 137.5 21.5t102 62t70 91.5t44.5 117t22.5 132t6.5 143q0 85 -9.5 158t-35 147t-67 125.5t-111 84t-160.5 32.5h-237 v-1114z" />
<glyph unicode="&#x10f;" horiz-adv-x="1093" d="M111 410v307q0 203 95.5 314.5t276.5 111.5q87 0 161 -36.5t122 -88.5v518h164v-1536h-127l-33 109q-48 -51 -123.5 -88t-163.5 -37q-181 0 -276.5 111.5t-95.5 314.5zM274 422q0 -148 57.5 -217.5t188.5 -69.5q133 0 246 109v639q-112 108 -246 108q-131 0 -188.5 -69.5 t-57.5 -216.5v-283zM995 1198l35 338h176l-100 -338h-111z" />
<glyph unicode="&#x110;" horiz-adv-x="1302" d="M68 668v141h127v625h440q254 0 393 -178t139 -535q0 -329 -135 -525t-350 -196h-487v668h-127zM369 160h237q77 0 137.5 21.5t102 62t70 91.5t44.5 117t22.5 132t6.5 143q0 85 -9.5 158t-35 147t-67 125.5t-111 84t-160.5 32.5h-237v-465h344v-141h-344v-508z" />
<glyph unicode="&#x111;" horiz-adv-x="1083" d="M111 410v307q0 203 95.5 314.5t276.5 111.5q87 0 161 -36.5t122 -88.5v229h-285v142h285v147h164v-147h162v-142h-162v-1247h-127l-33 109q-48 -51 -123.5 -88t-163.5 -37q-181 0 -276.5 111.5t-95.5 314.5zM274 422q0 -148 57.5 -217.5t188.5 -69.5q133 0 246 109v639 q-112 108 -246 108q-131 0 -188.5 -69.5t-57.5 -216.5v-283z" />
<glyph unicode="&#x112;" horiz-adv-x="1054" d="M195 0v1434h731v-160h-557v-463h512v-160h-512v-491h557v-160h-731zM315 1675v142h523v-142h-523z" />
<glyph unicode="&#x113;" horiz-adv-x="1013" d="M113 373v344q0 200 101.5 313t299.5 113q202 0 299.5 -110.5t97.5 -315.5v-211h-635v-168q0 -91 59.5 -147t188.5 -56q151 0 291 96l68 -125q-61 -55 -160 -88.5t-199 -33.5q-203 0 -307 101.5t-104 287.5zM270 1368v141h523v-141h-523zM276 641h476v64 q0 147 -55.5 216.5t-182.5 69.5t-182.5 -69.5t-55.5 -216.5v-64z" />
<glyph unicode="&#x114;" horiz-adv-x="1054" d="M195 0v1434h731v-160h-557v-463h512v-160h-512v-491h557v-160h-731zM281 1851v31h127v-24q0 -83 39 -120.5t124 -37.5t124.5 37.5t39.5 120.5v24h127v-31q0 -145 -80 -210.5t-211 -65.5q-62 0 -112.5 14.5t-91.5 45.5t-63.5 86t-22.5 130z" />
<glyph unicode="&#x115;" horiz-adv-x="1013" d="M113 373v344q0 200 101.5 313t299.5 113q202 0 299.5 -110.5t97.5 -315.5v-211h-635v-168q0 -91 59.5 -147t188.5 -56q151 0 291 96l68 -125q-61 -55 -160 -88.5t-199 -33.5q-203 0 -307 101.5t-104 287.5zM231 1544v31h127v-25q0 -83 39.5 -120t124.5 -37t124.5 37 t39.5 120v25h127v-31q0 -145 -80 -210.5t-211 -65.5t-211 65.5t-80 210.5zM276 641h476v64q0 147 -55.5 216.5t-182.5 69.5t-182.5 -69.5t-55.5 -216.5v-64z" />
<glyph unicode="&#x116;" horiz-adv-x="1054" d="M195 0v1434h731v-160h-557v-463h512v-160h-512v-491h557v-160h-731zM483 1602v208h183v-208h-183z" />
<glyph unicode="&#x117;" horiz-adv-x="1013" d="M113 373v344q0 200 101.5 313t299.5 113q202 0 299.5 -110.5t97.5 -315.5v-211h-635v-168q0 -91 59.5 -147t188.5 -56q151 0 291 96l68 -125q-61 -55 -160 -88.5t-199 -33.5q-203 0 -307 101.5t-104 287.5zM276 641h476v64q0 147 -55.5 216.5t-182.5 69.5t-182.5 -69.5 t-55.5 -216.5v-64zM426 1294v209h182v-209h-182z" />
<glyph unicode="&#x118;" horiz-adv-x="1054" d="M195 0v1434h731v-160h-557v-463h512v-160h-512v-491h557v-160q-87 -39 -145 -101.5t-58 -123.5q0 -40 20 -63t60 -23q41 0 92 22l29 -94q-67 -47 -160 -47q-88 0 -138.5 50.5t-50.5 125.5q0 83 62 151t160 103h-602z" />
<glyph unicode="&#x119;" horiz-adv-x="1013" d="M113 373v344q0 200 101.5 313t299.5 113q202 0 299.5 -110.5t97.5 -315.5v-211h-635v-168q0 -91 59.5 -147t188.5 -56q151 0 291 96l68 -125q-295 -177 -295 -331q0 -40 20 -63t60 -23q41 0 92 22l28 -94q-67 -47 -159 -47q-88 0 -138.5 50.5t-50.5 125.5q0 133 138 240 q-18 -2 -54 -2q-203 0 -307 101.5t-104 287.5zM276 641h476v64q0 147 -55.5 216.5t-182.5 69.5t-182.5 -69.5t-55.5 -216.5v-64z" />
<glyph unicode="&#x11a;" horiz-adv-x="1054" d="M195 0v1434h731v-160h-557v-463h512v-160h-512v-491h557v-160h-731zM264 1907h131l180 -189l181 189h131l-232 -338h-159z" />
<glyph unicode="&#x11b;" horiz-adv-x="1013" d="M113 373v344q0 200 101.5 313t299.5 113q202 0 299.5 -110.5t97.5 -315.5v-211h-635v-168q0 -91 59.5 -147t188.5 -56q151 0 291 96l68 -125q-61 -55 -160 -88.5t-199 -33.5q-203 0 -307 101.5t-104 287.5zM209 1599h131l180 -188l180 188h131l-231 -337h-160zM276 641 h476v64q0 147 -55.5 216.5t-182.5 69.5t-182.5 -69.5t-55.5 -216.5v-64z" />
<glyph unicode="&#x11c;" horiz-adv-x="1230" d="M143 477v479q0 230 120.5 362t354.5 132q306 0 420 -270l-141 -72q-35 59 -65.5 93.5t-84.5 58.5t-129 24q-159 0 -230 -88t-71 -260v-438q0 -172 71 -260t230 -88q108 0 183 36.5t112 85.5v326h-272v160h436v-539q-24 -38 -57.5 -72.5t-88.5 -74.5t-136.5 -64 t-176.5 -24q-234 0 -354.5 131.5t-120.5 361.5zM317 1569l232 338h160l231 -338h-131l-180 188l-180 -188h-132z" />
<glyph unicode="&#x11d;" horiz-adv-x="1075" d="M113 410v307q0 203 95.5 314.5t276.5 111.5q88 0 163.5 -37t123.5 -88l33 108h127v-1093q0 -71 -10.5 -133t-39 -124t-73.5 -106.5t-119.5 -72t-171.5 -27.5q-150 0 -336 84l49 127q153 -64 287 -64q250 0 250 320v72q-48 -52 -122 -88.5t-161 -36.5q-181 0 -276.5 111.5 t-95.5 314.5zM225 1262l232 337h159l232 -337h-131l-180 188l-181 -188h-131zM276 422q0 -148 57.5 -217.5t188.5 -69.5q133 0 246 109v639q-112 108 -246 108q-131 0 -188.5 -69.5t-57.5 -216.5v-283z" />
<glyph unicode="&#x11e;" horiz-adv-x="1230" d="M143 477v479q0 230 120.5 362t354.5 132q306 0 420 -270l-141 -72q-35 59 -65.5 93.5t-84.5 58.5t-129 24q-159 0 -230 -88t-71 -260v-438q0 -172 71 -260t230 -88q108 0 183 36.5t112 85.5v326h-272v160h436v-539q-24 -38 -57.5 -72.5t-88.5 -74.5t-136.5 -64 t-176.5 -24q-234 0 -354.5 131.5t-120.5 361.5zM336 1851v31h127v-24q0 -83 39.5 -120.5t124.5 -37.5t124.5 37.5t39.5 120.5v24h127v-31q0 -145 -80 -210.5t-211 -65.5t-211 65.5t-80 210.5z" />
<glyph unicode="&#x11f;" horiz-adv-x="1075" d="M113 410v307q0 203 95.5 314.5t276.5 111.5q88 0 163.5 -37t123.5 -88l33 108h127v-1093q0 -71 -10.5 -133t-39 -124t-73.5 -106.5t-119.5 -72t-171.5 -27.5q-150 0 -336 84l49 127q153 -64 287 -64q250 0 250 320v72q-48 -52 -122 -88.5t-161 -36.5q-181 0 -276.5 111.5 t-95.5 314.5zM246 1544v31h127v-25q0 -83 39.5 -120t124.5 -37t124 37t39 120v25h127v-31q0 -75 -22.5 -130t-63.5 -86t-91.5 -45.5t-112.5 -14.5q-131 0 -211 65.5t-80 210.5zM276 422q0 -148 57.5 -217.5t188.5 -69.5q133 0 246 109v639q-112 108 -246 108 q-131 0 -188.5 -69.5t-57.5 -216.5v-283z" />
<glyph unicode="&#x120;" horiz-adv-x="1230" d="M143 477v479q0 230 120.5 362t354.5 132q306 0 420 -270l-141 -72q-35 59 -65.5 93.5t-84.5 58.5t-129 24q-159 0 -230 -88t-71 -260v-438q0 -172 71 -260t230 -88q108 0 183 36.5t112 85.5v326h-272v160h436v-539q-24 -38 -57.5 -72.5t-88.5 -74.5t-136.5 -64 t-176.5 -24q-234 0 -354.5 131.5t-120.5 361.5zM524 1602v208h183v-208h-183z" />
<glyph unicode="&#x121;" horiz-adv-x="1075" d="M113 410v307q0 203 95.5 314.5t276.5 111.5q88 0 163.5 -37t123.5 -88l33 108h127v-1093q0 -71 -10.5 -133t-39 -124t-73.5 -106.5t-119.5 -72t-171.5 -27.5q-150 0 -336 84l49 127q153 -64 287 -64q250 0 250 320v72q-48 -52 -122 -88.5t-161 -36.5q-181 0 -276.5 111.5 t-95.5 314.5zM276 422q0 -148 57.5 -217.5t188.5 -69.5q133 0 246 109v639q-112 108 -246 108q-131 0 -188.5 -69.5t-57.5 -216.5v-283zM444 1294v209h183v-209h-183z" />
<glyph unicode="&#x122;" horiz-adv-x="1230" d="M143 477v479q0 230 120.5 362t354.5 132q306 0 420 -270l-141 -72q-35 59 -65.5 93.5t-84.5 58.5t-129 24q-159 0 -230 -88t-71 -260v-438q0 -172 71 -260t230 -88q108 0 183 36.5t112 85.5v326h-272v160h436v-539q-24 -38 -57.5 -72.5t-88.5 -74.5t-136.5 -64 t-176.5 -24q-234 0 -354.5 131.5t-120.5 361.5zM520 -100h189v-166q0 -138 -109 -244l-76 59q74 82 74 166h-78v185z" />
<glyph unicode="&#x123;" horiz-adv-x="1075" d="M113 410v307q0 203 95.5 314.5t276.5 111.5q88 0 163.5 -37t123.5 -88l33 108h127v-1093q0 -71 -10.5 -133t-39 -124t-73.5 -106.5t-119.5 -72t-171.5 -27.5q-150 0 -336 84l49 127q153 -64 287 -64q250 0 250 320v72q-48 -52 -122 -88.5t-161 -36.5q-181 0 -276.5 111.5 t-95.5 314.5zM276 422q0 -148 57.5 -217.5t188.5 -69.5q133 0 246 109v639q-112 108 -246 108q-131 0 -188.5 -69.5t-57.5 -216.5v-283zM418 1237v166q0 139 108 244l76 -60q-74 -82 -74 -166h78v-184h-188z" />
<glyph unicode="&#x124;" horiz-adv-x="1341" d="M195 0v1434h174v-611h604v611h174v-1434h-174v664h-604v-664h-174zM358 1569l232 338h160l231 -338h-131l-180 188l-181 -188h-131z" />
<glyph unicode="&#x125;" horiz-adv-x="1146" d="M-57 1638l231 338h160l231 -338h-131l-180 189l-180 -189h-131zM164 0v1536h164v-535q56 54 140.5 98t184.5 44q173 0 256.5 -106.5t83.5 -278.5v-758h-164v719q0 140 -58 201t-173 61q-71 0 -144 -36t-126 -83v-862h-164z" />
<glyph unicode="&#x126;" horiz-adv-x="1341" d="M59 1083v142h136v209h174v-209h604v209h174v-209h133v-142h-133v-1083h-174v664h-604v-664h-174v1083h-136zM369 823h604v260h-604v-260z" />
<glyph unicode="&#x127;" horiz-adv-x="1177" d="M33 1247v142h162v147h163v-147h285v-142h-285v-246q56 54 141 98t185 44q173 0 256.5 -106.5t83.5 -278.5v-758h-164v719q0 140 -58 201t-173 61q-71 0 -145 -36t-126 -83v-862h-163v1247h-162z" />
<glyph unicode="&#x128;" horiz-adv-x="563" d="M-49 1645q26 81 79.5 137.5t123.5 56.5q51 0 101 -26.5t91 -53t70 -26.5q36 0 59 24.5t45 67.5l107 -45q-29 -92 -84 -143.5t-121 -51.5q-40 0 -81 16.5t-68 37t-58 37t-55 16.5q-62 0 -105 -93zM195 0v1434h174v-1434h-174z" />
<glyph unicode="&#x129;" horiz-adv-x="501" d="M-78 1337q26 81 79.5 138t123.5 57q51 0 101 -27t91 -53.5t70 -26.5q36 0 59.5 25t45.5 68l106 -45q-29 -92 -84 -143.5t-121 -51.5q-51 0 -101 26.5t-91 53t-70 26.5q-61 0 -104 -92zM174 0v1126h164v-1126h-164z" />
<glyph unicode="&#x12a;" horiz-adv-x="563" d="M25 1675v142h522v-142h-522zM195 0v1434h174v-1434h-174z" />
<glyph unicode="&#x12b;" horiz-adv-x="501" d="M0 1368v141h522v-141h-522zM174 0v1126h164v-1126h-164z" />
<glyph unicode="&#x12c;" horiz-adv-x="563" d="M-6 1851v31h127v-24q0 -83 39.5 -120.5t124.5 -37.5t124.5 37.5t39.5 120.5v24h126v-31q0 -75 -22.5 -130t-63.5 -86t-91.5 -45.5t-112.5 -14.5q-131 0 -211 65.5t-80 210.5zM195 0v1434h174v-1434h-174z" />
<glyph unicode="&#x12d;" horiz-adv-x="501" d="M-33 1544v31h127v-25q0 -83 39.5 -120t124.5 -37t124.5 37t39.5 120v25h127v-31q0 -145 -80 -210.5t-211 -65.5t-211 65.5t-80 210.5zM174 0v1126h164v-1126h-164z" />
<glyph unicode="&#x12e;" horiz-adv-x="563" d="M18 -254q0 83 62 151t160 103h-45v1434h174v-1434q-87 -39 -145 -101.5t-58 -123.5q0 -40 20 -63t60 -23q41 0 92 22l29 -94q-67 -47 -160 -47q-88 0 -138.5 50.5t-50.5 125.5z" />
<glyph unicode="&#x12f;" horiz-adv-x="501" d="M-12 -254q0 83 61.5 151t159.5 103h-35v1126h164v-1126q-87 -39 -145 -101.5t-58 -123.5q0 -40 20 -63t60 -23q41 0 92 22l29 -94q-67 -47 -160 -47q-88 0 -138 50.5t-50 125.5zM166 1294v209h180v-209h-180z" />
<glyph unicode="&#x130;" horiz-adv-x="563" d="M193 1602v208h182v-208h-182zM195 0v1434h174v-1434h-174z" />
<glyph unicode="&#x131;" horiz-adv-x="501" d="M174 0v1126h164v-1126h-164z" />
<glyph unicode="&#x132;" horiz-adv-x="1372" d="M195 0v1434h174v-1434h-174zM623 2l20 158q58 -10 105 -10q66 0 111.5 13.5t74 37t44 64.5t21 87.5t5.5 114.5v967h174v-963q0 -86 -10.5 -155t-38.5 -132.5t-73 -106t-117.5 -68t-168.5 -25.5q-66 0 -147 18z" />
<glyph unicode="&#x133;" horiz-adv-x="993" d="M166 1294v209h180v-209h-180zM174 0v1126h164v-1126h-164zM346 -391l39 135q58 -14 100 -14q181 0 181 192v1204h163v-1169q0 -189 -79 -284t-254 -95q-86 0 -150 31zM657 1294v209h181v-209h-181z" />
<glyph unicode="&#x134;" horiz-adv-x="808" d="M59 2l21 158q58 -10 104 -10q66 0 111.5 13.5t74 37t44 64.5t21 87.5t5.5 114.5v967h174v-963q0 -86 -10.5 -155t-38 -132.5t-72.5 -106t-117.5 -68t-168.5 -25.5q-67 0 -148 18zM219 1569l232 338h159l232 -338h-131l-181 188l-180 -188h-131z" />
<glyph unicode="&#x135;" horiz-adv-x="491" d="M-156 -391l39 135q58 -14 101 -14q98 0 139 50.5t41 141.5v1204h164v-1169q0 -189 -79.5 -284t-254.5 -95q-86 0 -150 31zM-63 1262l231 337h160l231 -337h-131l-180 188l-180 -188h-131z" />
<glyph unicode="&#x136;" horiz-adv-x="1157" d="M195 0v1434h174v-623h157l371 623h195l-422 -684l432 -750h-199l-362 651h-172v-651h-174zM512 -100h188v-166q0 -139 -108 -244l-76 59q74 82 74 166h-78v185z" />
<glyph unicode="&#x137;" horiz-adv-x="1003" d="M164 0v1536h164v-858h151l285 448h180l-330 -508l338 -618h-184l-281 535h-159v-535h-164zM420 -100h188v-166q0 -139 -108 -244l-76 59q74 82 74 166h-78v185z" />
<glyph unicode="&#x138;" horiz-adv-x="1003" d="M164 0v1126h164v-448h151l285 448h180l-330 -508l338 -618h-184l-281 535h-159v-535h-164z" />
<glyph unicode="&#x139;" horiz-adv-x="993" d="M195 0v1434h174v-1274h557v-160h-731zM203 1569l112 338h179l-170 -338h-121z" />
<glyph unicode="&#x13a;" horiz-adv-x="481" d="M150 1612l112 338h178l-170 -338h-120zM164 0v1536h164v-1536h-164z" />
<glyph unicode="&#x13b;" horiz-adv-x="993" d="M195 0v1434h174v-1274h557v-160h-731zM481 -100h189v-166q0 -138 -109 -244l-76 59q74 82 74 166h-78v185z" />
<glyph unicode="&#x13c;" horiz-adv-x="481" d="M154 -100h188v-166q0 -138 -109 -244l-75 59q73 81 73 166h-77v185zM164 0v1536h164v-1536h-164z" />
<glyph unicode="&#x13d;" horiz-adv-x="993" d="M195 0v1434h174v-1274h557v-160h-731zM586 1096l35 338h176l-101 -338h-110z" />
<glyph unicode="&#x13e;" horiz-adv-x="522" d="M164 0v1536h164v-1536h-164zM393 1198l35 338h176l-100 -338h-111z" />
<glyph unicode="&#x13f;" horiz-adv-x="993" d="M195 0v1434h174v-1274h557v-160h-731zM563 655v226h232v-226h-232z" />
<glyph unicode="&#x140;" horiz-adv-x="778" d="M164 0v1536h164v-1536h-164zM440 657v226h232v-226h-232z" />
<glyph unicode="&#x141;" horiz-adv-x="1021" d="M90 582v153l133 58v641h174v-566l406 176v-153l-406 -176v-555h557v-160h-731v639z" />
<glyph unicode="&#x142;" horiz-adv-x="706" d="M92 674v155l164 70v637h164v-565l213 94v-156l-213 -94v-815h-164v752z" />
<glyph unicode="&#x143;" horiz-adv-x="1366" d="M195 0v1434h133l669 -1078h11v1078h163v-1434h-151l-651 1059h-11v-1059h-163zM600 1569l113 338h178l-170 -338h-121z" />
<glyph unicode="&#x144;" horiz-adv-x="1136" d="M164 0v1126h131l18 -139q21 23 49 46t70 50t97.5 43.5t113.5 16.5q173 0 256.5 -106.5t83.5 -278.5v-758h-164v719q0 140 -58 201t-173 61q-128 0 -260 -119v-862h-164zM516 1262l113 337h178l-170 -337h-121z" />
<glyph unicode="&#x145;" horiz-adv-x="1366" d="M195 0v1434h133l669 -1078h11v1078h163v-1434h-151l-651 1059h-11v-1059h-163zM590 -100h188v-166q0 -139 -108 -244l-76 59q74 82 74 166h-78v185z" />
<glyph unicode="&#x146;" horiz-adv-x="1136" d="M164 0v1126h131l18 -139q21 23 49 46t70 50t97.5 43.5t113.5 16.5q173 0 256.5 -106.5t83.5 -278.5v-758h-164v719q0 140 -58 201t-173 61q-128 0 -260 -119v-862h-164zM485 -100h189v-166q0 -138 -109 -244l-76 59q74 82 74 166h-78v185z" />
<glyph unicode="&#x147;" horiz-adv-x="1366" d="M195 0v1434h133l669 -1078h11v1078h163v-1434h-151l-651 1059h-11v-1059h-163zM385 1907h131l180 -189l181 189h131l-232 -338h-160z" />
<glyph unicode="&#x148;" horiz-adv-x="1136" d="M164 0v1126h131l18 -139q21 23 49 46t70 50t97.5 43.5t113.5 16.5q173 0 256.5 -106.5t83.5 -278.5v-758h-164v719q0 140 -58 201t-173 61q-128 0 -260 -119v-862h-164zM289 1599h131l180 -188l180 188h131l-231 -337h-160z" />
<glyph unicode="&#x149;" horiz-adv-x="1136" d="M-39 1341v185h189v-166q0 -138 -109 -244l-76 60q74 82 74 165h-78zM164 0v1126h131l18 -139q21 23 49 46t70 50t97.5 43.5t113.5 16.5q173 0 256.5 -106.5t83.5 -278.5v-758h-164v719q0 140 -58 201t-173 61q-128 0 -260 -119v-862h-164z" />
<glyph unicode="&#x14a;" horiz-adv-x="1366" d="M195 0v1434h133l673 -1082h11v1082h159v-1377q0 -86 -10.5 -155t-38 -132.5t-72.5 -106t-117.5 -68t-168.5 -25.5q-69 0 -141 16l14 160q58 -10 104 -10q79 0 130 17.5t79 57t38.5 90t12.5 128.5l-636 1034h-11v-1063h-159z" />
<glyph unicode="&#x14b;" horiz-adv-x="1136" d="M164 0v1126h131l18 -139q21 23 49 46t70 50t97.5 43.5t113.5 16.5q173 0 256.5 -106.5t83.5 -278.5v-801q0 -189 -79.5 -284t-254.5 -95q-37 0 -80 10t-69 25l39 131q58 -14 100 -14q98 0 139 50.5t41 141.5v797q0 140 -58 201t-173 61q-128 0 -260 -119v-862h-164z" />
<glyph unicode="&#x14c;" horiz-adv-x="1236" d="M143 477v479q0 230 120.5 362t354.5 132t355 -132t121 -362v-479q0 -230 -121 -361.5t-355 -131.5t-354.5 131.5t-120.5 361.5zM317 498q0 -173 70.5 -260.5t230.5 -87.5t231 88t71 260v438q0 172 -71 260t-231 88t-230.5 -87.5t-70.5 -260.5v-438zM365 1675v142h522 v-142h-522z" />
<glyph unicode="&#x14d;" horiz-adv-x="1044" d="M113 410v307q0 202 102.5 314t306.5 112q410 0 410 -426v-307q0 -426 -410 -426q-204 0 -306.5 112t-102.5 314zM268 1368v141h523v-141h-523zM276 422q0 -148 57 -217.5t189 -69.5t189 69.5t57 217.5v283q0 148 -57 217t-189 69t-189 -69t-57 -217v-283z" />
<glyph unicode="&#x14e;" horiz-adv-x="1236" d="M143 477v479q0 230 120.5 362t354.5 132t355 -132t121 -362v-479q0 -230 -121 -361.5t-355 -131.5t-354.5 131.5t-120.5 361.5zM317 498q0 -173 70.5 -260.5t230.5 -87.5t231 88t71 260v438q0 172 -71 260t-231 88t-230.5 -87.5t-70.5 -260.5v-438zM334 1851v31h127v-24 q0 -83 39.5 -120.5t124.5 -37.5t124 37.5t39 120.5v24h127v-31q0 -75 -22.5 -130t-63.5 -86t-91.5 -45.5t-112.5 -14.5q-131 0 -211 65.5t-80 210.5z" />
<glyph unicode="&#x14f;" horiz-adv-x="1044" d="M113 410v307q0 202 102.5 314t306.5 112q410 0 410 -426v-307q0 -426 -410 -426q-204 0 -306.5 112t-102.5 314zM236 1544v31h126v-25q0 -83 39.5 -120t124.5 -37t124.5 37t39.5 120v25h127v-31q0 -145 -80 -210.5t-211 -65.5q-62 0 -112.5 14.5t-91.5 45.5t-63.5 86 t-22.5 130zM276 422q0 -148 57 -217.5t189 -69.5t189 69.5t57 217.5v283q0 148 -57 217t-189 69t-189 -69t-57 -217v-283z" />
<glyph unicode="&#x150;" horiz-adv-x="1236" d="M143 477v479q0 230 120.5 362t354.5 132t355 -132t121 -362v-479q0 -230 -121 -361.5t-355 -131.5t-354.5 131.5t-120.5 361.5zM317 498q0 -173 70.5 -260.5t230.5 -87.5t231 88t71 260v438q0 172 -71 260t-231 88t-230.5 -87.5t-70.5 -260.5v-438zM434 1569l113 338h178 l-170 -338h-121zM709 1569l112 338h178l-170 -338h-120z" />
<glyph unicode="&#x151;" horiz-adv-x="1044" d="M113 410v307q0 202 102.5 314t306.5 112q410 0 410 -426v-307q0 -426 -410 -426q-204 0 -306.5 112t-102.5 314zM276 422q0 -148 57 -217.5t189 -69.5t189 69.5t57 217.5v283q0 148 -57 217t-189 69t-189 -69t-57 -217v-283zM317 1262l113 337h178l-170 -337h-121z M592 1262l113 337h178l-170 -337h-121z" />
<glyph unicode="&#x152;" horiz-adv-x="1779" d="M143 477v479q0 230 120.5 362t354.5 132q201 0 302 -107v91h731v-160h-557v-463h512v-160h-512v-491h557v-160h-731v96q-112 -112 -302 -112q-234 0 -354.5 131.5t-120.5 361.5zM317 498q0 -173 70.5 -260.5t230.5 -87.5q158 0 230 83t72 248v471q0 163 -72.5 247.5 t-229.5 84.5q-160 0 -230.5 -87.5t-70.5 -260.5v-438z" />
<glyph unicode="&#x153;" horiz-adv-x="1669" d="M113 410v307q0 202 102.5 314t306.5 112q221 0 332 -148q95 148 315 148q202 0 300 -110.5t98 -315.5v-211h-635v-168q0 -91 59.5 -147t188.5 -56q150 0 290 96l68 -125q-61 -55 -159.5 -88.5t-198.5 -33.5q-229 0 -330 143q-110 -143 -328 -143q-204 0 -306.5 112 t-102.5 314zM276 422q0 -148 57 -217.5t189 -69.5t189 69.5t57 217.5v283q0 148 -57 217t-189 69t-189 -69t-57 -217v-283zM932 641h475v64q0 147 -55.5 216.5t-182.5 69.5t-182 -69t-55 -217v-64z" />
<glyph unicode="&#x154;" horiz-adv-x="1210" d="M195 0v1434h397q234 0 357.5 -103.5t123.5 -333.5q0 -82 -18.5 -149t-46 -109t-66 -74.5t-70 -48.5t-67.5 -28l307 -588h-197l-282 561h-264v-561h-174zM369 721h233q146 0 219.5 64t73.5 212q0 157 -76 217t-239 60h-211v-553zM502 1569l112 338h179l-170 -338h-121z " />
<glyph unicode="&#x155;" horiz-adv-x="768" d="M164 0v1126h131l18 -178q17 27 43 56t66 62.5t94.5 55t112.5 21.5q39 0 86 -13l-29 -155q-42 10 -86 10q-84 0 -158.5 -53t-113.5 -129v-803h-164zM315 1262l113 337h178l-170 -337h-121z" />
<glyph unicode="&#x156;" horiz-adv-x="1210" d="M195 0v1434h397q234 0 357.5 -103.5t123.5 -333.5q0 -82 -18.5 -149t-46 -109t-66 -74.5t-70 -48.5t-67.5 -28l307 -588h-197l-282 561h-264v-561h-174zM369 721h233q146 0 219.5 64t73.5 212q0 157 -76 217t-239 60h-211v-553zM520 -100h189v-166q0 -138 -109 -244 l-76 59q74 82 74 166h-78v185z" />
<glyph unicode="&#x157;" horiz-adv-x="768" d="M160 -100h188v-166q0 -139 -108 -244l-76 59q74 82 74 166h-78v185zM164 0v1126h131l18 -178q17 27 43 56t66 62.5t94.5 55t112.5 21.5q39 0 86 -13l-29 -155q-42 10 -86 10q-84 0 -158.5 -53t-113.5 -129v-803h-164z" />
<glyph unicode="&#x158;" horiz-adv-x="1210" d="M195 0v1434h397q234 0 357.5 -103.5t123.5 -333.5q0 -82 -18.5 -149t-46 -109t-66 -74.5t-70 -48.5t-67.5 -28l307 -588h-197l-282 561h-264v-561h-174zM272 1907h131l181 -189l180 189h131l-231 -338h-160zM369 721h233q146 0 219.5 64t73.5 212q0 157 -76 217t-239 60 h-211v-553z" />
<glyph unicode="&#x159;" horiz-adv-x="768" d="M104 1599h132l180 -188l180 188h131l-231 -337h-160zM164 0v1126h131l18 -178q17 27 43 56t66 62.5t94.5 55t112.5 21.5q39 0 86 -13l-29 -155q-42 10 -86 10q-84 0 -158.5 -53t-113.5 -129v-803h-164z" />
<glyph unicode="&#x15a;" horiz-adv-x="1081" d="M86 121l80 137q64 -35 106.5 -54t110.5 -36.5t137 -17.5q150 0 216.5 66.5t66.5 178.5q0 70 -23.5 121.5t-63 81.5t-91 52t-108.5 38t-114 33t-108.5 43t-91 62.5t-63 97.5t-23.5 143q0 185 106.5 284t306.5 99q220 0 390 -129l-78 -131q-150 98 -312 98 q-72 0 -122 -17.5t-75.5 -49.5t-35.5 -68.5t-10 -83.5q0 -52 23.5 -90.5t63 -62t91 -42t108.5 -35.5t114 -37t108.5 -51.5t91 -74t63 -110.5t23.5 -156q0 -90 -25.5 -165t-78 -134.5t-141.5 -93t-208 -33.5q-116 0 -229.5 35.5t-204.5 101.5zM442 1569l113 338h178 l-170 -338h-121z" />
<glyph unicode="&#x15b;" horiz-adv-x="892" d="M72 92l59 123q177 -86 305 -86q230 0 230 197q0 37 -11.5 65.5t-28.5 47t-50 34t-61.5 25t-78.5 22.5q-45 12 -71 19.5t-66.5 22.5t-64.5 29t-52.5 37.5t-44 50t-26.5 63.5t-11 81q0 158 99 239t262 81q166 0 319 -88l-55 -129q-134 71 -264 71q-203 0 -203 -161 q0 -33 13.5 -59t31.5 -42.5t54.5 -32t63 -24t75.5 -21.5q45 -13 73.5 -22t66.5 -24t61.5 -30.5t49 -39.5t39.5 -52t23.5 -66.5t9.5 -84.5q0 -169 -96.5 -261.5t-286.5 -92.5q-104 0 -203.5 34.5t-160.5 73.5zM367 1262l112 337h178l-170 -337h-120z" />
<glyph unicode="&#x15c;" horiz-adv-x="1081" d="M86 121l80 137q64 -35 106.5 -54t110.5 -36.5t137 -17.5q150 0 216.5 66.5t66.5 178.5q0 70 -23.5 121.5t-63 81.5t-91 52t-108.5 38t-114 33t-108.5 43t-91 62.5t-63 97.5t-23.5 143q0 185 106.5 284t306.5 99q220 0 390 -129l-78 -131q-150 98 -312 98 q-72 0 -122 -17.5t-75.5 -49.5t-35.5 -68.5t-10 -83.5q0 -52 23.5 -90.5t63 -62t91 -42t108.5 -35.5t114 -37t108.5 -51.5t91 -74t63 -110.5t23.5 -156q0 -90 -25.5 -165t-78 -134.5t-141.5 -93t-208 -33.5q-116 0 -229.5 35.5t-204.5 101.5zM242 1569l231 338h160l231 -338 h-131l-180 188l-180 -188h-131z" />
<glyph unicode="&#x15d;" horiz-adv-x="892" d="M72 92l59 123q177 -86 305 -86q230 0 230 197q0 37 -11.5 65.5t-28.5 47t-50 34t-61.5 25t-78.5 22.5q-45 12 -71 19.5t-66.5 22.5t-64.5 29t-52.5 37.5t-44 50t-26.5 63.5t-11 81q0 158 99 239t262 81q166 0 319 -88l-55 -129q-134 71 -264 71q-203 0 -203 -161 q0 -33 13.5 -59t31.5 -42.5t54.5 -32t63 -24t75.5 -21.5q45 -13 73.5 -22t66.5 -24t61.5 -30.5t49 -39.5t39.5 -52t23.5 -66.5t9.5 -84.5q0 -169 -96.5 -261.5t-286.5 -92.5q-104 0 -203.5 34.5t-160.5 73.5zM154 1262l231 337h160l231 -337h-131l-180 188l-180 -188h-131z " />
<glyph unicode="&#x15e;" horiz-adv-x="1081" d="M86 121l80 137q64 -35 106.5 -54t110.5 -36.5t137 -17.5q150 0 216.5 66.5t66.5 178.5q0 70 -23.5 121.5t-63 81.5t-91 52t-108.5 38t-114 33t-108.5 43t-91 62.5t-63 97.5t-23.5 143q0 185 106.5 284t306.5 99q220 0 390 -129l-78 -131q-150 98 -312 98 q-72 0 -122 -17.5t-75.5 -49.5t-35.5 -68.5t-10 -83.5q0 -52 23.5 -90.5t63 -62t91 -42t108.5 -35.5t114 -37t108.5 -51.5t91 -74t63 -110.5t23.5 -156q0 -87 -24 -160.5t-72.5 -132t-131.5 -94t-192 -39.5l-29 -95q32 7 64 7q72 0 117 -38.5t45 -121.5q0 -61 -33 -100 t-78 -52.5t-102 -13.5q-91 0 -189 39l29 94q91 -25 151 -25t78.5 14.5t18.5 43.5q0 59 -80 59q-41 0 -82 -14l-43 43l24 164q-205 19 -358 133z" />
<glyph unicode="&#x15f;" horiz-adv-x="892" d="M72 92l59 123q177 -86 305 -86q230 0 230 197q0 37 -11.5 65.5t-28.5 47t-50 34t-61.5 25t-78.5 22.5q-45 12 -71 19.5t-66.5 22.5t-64.5 29t-52.5 37.5t-44 50t-26.5 63.5t-11 81q0 158 99 239t262 81q166 0 319 -88l-55 -129q-134 71 -264 71q-203 0 -203 -161 q0 -33 13.5 -59t31.5 -42.5t54.5 -32t63 -24t75.5 -21.5q45 -13 73.5 -22t66.5 -24t61.5 -30.5t49 -39.5t39.5 -52t23.5 -66.5t9.5 -84.5q0 -161 -86.5 -252t-257.5 -100l-29 -97q31 7 64 7q72 0 117 -38.5t45 -121.5q0 -61 -33 -100t-78 -52.5t-102 -13.5q-91 0 -189 39 l29 94q91 -25 152 -25q60 0 78 14.5t18 43.5q0 59 -80 59q-41 0 -82 -14l-43 43l25 164q-161 18 -295 104z" />
<glyph unicode="&#x160;" horiz-adv-x="1077" d="M86 121l80 137q64 -35 106.5 -54t110.5 -36.5t137 -17.5q150 0 216.5 66.5t66.5 178.5q0 70 -23.5 121.5t-63 81.5t-91 52t-108.5 38t-114 33t-108.5 43t-91 62.5t-63 97.5t-23.5 143q0 185 106.5 284t306.5 99q220 0 390 -129l-78 -131q-150 98 -312 98 q-72 0 -122 -17.5t-75.5 -49.5t-35.5 -68.5t-10 -83.5q0 -52 23.5 -90.5t63 -62t91 -42t108.5 -35.5t114 -37t108.5 -51.5t91 -74t63 -110.5t23.5 -156q0 -90 -25.5 -165t-78 -134.5t-141.5 -93t-208 -33.5q-116 0 -229.5 35.5t-204.5 101.5zM231 1907h131l181 -189l180 189 h131l-231 -338h-160z" />
<glyph unicode="&#x161;" horiz-adv-x="892" d="M72 92l59 123q177 -86 305 -86q230 0 230 197q0 37 -11.5 65.5t-28.5 47t-50 34t-61.5 25t-78.5 22.5q-45 12 -71 19.5t-66.5 22.5t-64.5 29t-52.5 37.5t-44 50t-26.5 63.5t-11 81q0 158 99 239t262 81q166 0 319 -88l-55 -129q-134 71 -264 71q-203 0 -203 -161 q0 -33 13.5 -59t31.5 -42.5t54.5 -32t63 -24t75.5 -21.5q45 -13 73.5 -22t66.5 -24t61.5 -30.5t49 -39.5t39.5 -52t23.5 -66.5t9.5 -84.5q0 -169 -96.5 -261.5t-286.5 -92.5q-104 0 -203.5 34.5t-160.5 73.5zM154 1599h131l180 -188l180 188h131l-231 -337h-160z" />
<glyph unicode="&#x162;" horiz-adv-x="1136" d="M92 1274v160h950v-160h-387v-1274h-43l-32 -111q32 7 63 7q72 0 117 -38.5t45 -121.5q0 -61 -33 -100t-78 -52.5t-102 -13.5q-92 0 -189 39l29 94q91 -25 152 -25q60 0 78 14.5t18 43.5q0 59 -80 59q-41 0 -82 -14l-43 43l27 176h-21v1274h-389z" />
<glyph unicode="&#x163;" horiz-adv-x="849" d="M57 983v129l203 14v226l160 20v-246h309v-143h-309v-659q0 -95 36.5 -137t133.5 -42q64 0 153 27l31 -133q-93 -45 -205 -45l-51 2l-33 -107q31 7 64 7q72 0 117 -38.5t45 -121.5q0 -61 -33 -100t-78 -52.5t-102 -13.5q-91 0 -189 39l29 94q91 -25 151 -25t78.5 14.5 t18.5 43.5q0 59 -80 59q-41 0 -82 -14l-43 43l29 194q-83 32 -118.5 110.5t-35.5 215.5v639h-199z" />
<glyph unicode="&#x164;" horiz-adv-x="1136" d="M92 1274v160h950v-160h-387v-1274h-174v1274h-389zM262 1907h131l180 -189l181 189h131l-232 -338h-159z" />
<glyph unicode="&#x165;" horiz-adv-x="849" d="M57 983v129l203 14v226l160 20v-246h309v-143h-309v-659q0 -95 36.5 -137t133.5 -42q64 0 153 27l31 -133q-93 -45 -205 -45q-174 0 -243.5 81.5t-69.5 268.5v639h-199zM557 1245l35 338h176l-100 -338h-111z" />
<glyph unicode="&#x166;" horiz-adv-x="1136" d="M92 1274v160h950v-160h-387v-381h273v-141h-273v-752h-174v752h-272v141h272v381h-389z" />
<glyph unicode="&#x167;" horiz-adv-x="849" d="M57 983v129l203 14v226l160 20v-246h309v-143h-309v-211h278v-141h-278v-307q0 -95 36.5 -137t133.5 -42q64 0 153 27l31 -133q-93 -45 -205 -45q-174 0 -243.5 81.5t-69.5 268.5v287h-176v141h176v211h-199z" />
<glyph unicode="&#x168;" horiz-adv-x="1323" d="M195 451v983h174v-963q0 -76 13.5 -132t46 -100t90.5 -66.5t143 -22.5t143 22.5t90 66.5t45.5 100t13.5 132v963h174v-983q0 -226 -118 -346.5t-348 -120.5t-348.5 120.5t-118.5 346.5zM338 1645q26 81 79.5 137.5t123.5 56.5q51 0 101 -26.5t91 -53t70 -26.5 q36 0 59 24.5t45 67.5l107 -45q-29 -92 -84 -143.5t-121 -51.5q-40 0 -81 16.5t-68 37t-58 37t-55 16.5q-62 0 -105 -93z" />
<glyph unicode="&#x169;" horiz-adv-x="1126" d="M154 369v757h163v-718q0 -140 58.5 -201.5t173.5 -61.5q128 0 260 119v862h164v-1126h-131l-19 139q-21 -23 -48.5 -45.5t-70 -49.5t-97.5 -43.5t-113 -16.5q-173 0 -256.5 106.5t-83.5 278.5zM236 1337q26 81 79 138t123 57q51 0 101 -27t91 -53.5t70 -26.5 q36 0 59.5 25t45.5 68l106 -45q-29 -92 -83.5 -143.5t-120.5 -51.5q-40 0 -81 16.5t-68.5 36.5t-58.5 36.5t-55 16.5q-61 0 -104 -92z" />
<glyph unicode="&#x16a;" horiz-adv-x="1323" d="M195 451v983h174v-963q0 -76 13.5 -132t46 -100t90.5 -66.5t143 -22.5t143 22.5t90 66.5t45.5 100t13.5 132v963h174v-983q0 -226 -118 -346.5t-348 -120.5t-348.5 120.5t-118.5 346.5zM399 1675v142h523v-142h-523z" />
<glyph unicode="&#x16b;" horiz-adv-x="1126" d="M154 369v757h163v-718q0 -140 58.5 -201.5t173.5 -61.5q128 0 260 119v862h164v-1126h-131l-19 139q-21 -23 -48.5 -45.5t-70 -49.5t-97.5 -43.5t-113 -16.5q-173 0 -256.5 106.5t-83.5 278.5zM301 1368v141h522v-141h-522z" />
<glyph unicode="&#x16c;" horiz-adv-x="1323" d="M195 451v983h174v-963q0 -76 13.5 -132t46 -100t90.5 -66.5t143 -22.5t143 22.5t90 66.5t45.5 100t13.5 132v963h174v-983q0 -226 -118 -346.5t-348 -120.5t-348.5 120.5t-118.5 346.5zM371 1851v31h127v-24q0 -83 39.5 -120.5t124.5 -37.5t124 37.5t39 120.5v24h127v-31 q0 -75 -22.5 -130t-63.5 -86t-91.5 -45.5t-112.5 -14.5q-131 0 -211 65.5t-80 210.5z" />
<glyph unicode="&#x16d;" horiz-adv-x="1126" d="M154 369v757h163v-718q0 -140 58.5 -201.5t173.5 -61.5q128 0 260 119v862h164v-1126h-131l-19 139q-21 -23 -48.5 -45.5t-70 -49.5t-97.5 -43.5t-113 -16.5q-173 0 -256.5 106.5t-83.5 278.5zM272 1544v31h127v-25q0 -83 39.5 -120t124.5 -37t124.5 37t39.5 120v25h127 v-31q0 -145 -80 -210.5t-211 -65.5t-211 65.5t-80 210.5z" />
<glyph unicode="&#x16e;" horiz-adv-x="1323" d="M195 451v983h174v-963q0 -76 13.5 -132t46 -100t90.5 -66.5t143 -22.5t143 22.5t90 66.5t45.5 100t13.5 132v963h174v-983q0 -226 -118 -346.5t-348 -120.5t-348.5 120.5t-118.5 346.5zM455 1741q0 94 57.5 148.5t149.5 54.5t149 -54.5t57 -148.5q0 -95 -56.5 -149 t-149.5 -54t-150 54t-57 149zM559 1741q0 -46 28 -73.5t75 -27.5t74.5 27.5t27.5 73.5t-27.5 73t-74.5 27t-75 -27t-28 -73z" />
<glyph unicode="&#x16f;" horiz-adv-x="1126" d="M154 369v757h163v-718q0 -140 58.5 -201.5t173.5 -61.5q128 0 260 119v862h164v-1126h-131l-19 139q-21 -23 -48.5 -45.5t-70 -49.5t-97.5 -43.5t-113 -16.5q-173 0 -256.5 106.5t-83.5 278.5zM356 1434q0 94 57.5 148t149.5 54t149.5 -54t57.5 -148q0 -95 -57 -149 t-150 -54t-150 54t-57 149zM461 1434q0 -46 27.5 -73.5t74.5 -27.5t75 27.5t28 73.5t-28 73t-75 27t-74.5 -27t-27.5 -73z" />
<glyph unicode="&#x170;" horiz-adv-x="1323" d="M195 451v983h174v-963q0 -76 13.5 -132t46 -100t90.5 -66.5t143 -22.5t143 22.5t90 66.5t45.5 100t13.5 132v963h174v-983q0 -226 -118 -346.5t-348 -120.5t-348.5 120.5t-118.5 346.5zM457 1569l112 338h179l-170 -338h-121zM731 1569l113 338h178l-170 -338h-121z" />
<glyph unicode="&#x171;" horiz-adv-x="1126" d="M154 369v757h163v-718q0 -140 58.5 -201.5t173.5 -61.5q128 0 260 119v862h164v-1126h-131l-19 139q-21 -23 -48.5 -45.5t-70 -49.5t-97.5 -43.5t-113 -16.5q-173 0 -256.5 106.5t-83.5 278.5zM367 1262l112 337h178l-170 -337h-120zM641 1262l113 337h178l-170 -337 h-121z" />
<glyph unicode="&#x172;" horiz-adv-x="1323" d="M195 451v983h174v-963q0 -76 13.5 -132t46 -100t90.5 -66.5t143 -22.5t143 22.5t90 66.5t45.5 100t13.5 132v963h174v-983q0 -294 -196 -406q-217 -145 -217 -266q0 -40 20 -65t60 -25q41 0 92 22l28 -94q-67 -47 -159 -47q-88 0 -138.5 50.5t-50.5 125.5q0 125 148 240 q-35 -2 -53 -2q-230 0 -348.5 120.5t-118.5 346.5z" />
<glyph unicode="&#x173;" horiz-adv-x="1126" d="M154 369v757h163v-718q0 -140 58.5 -201.5t173.5 -61.5q128 0 260 119v862h164v-1126q-87 -39 -145 -101.5t-58 -123.5q0 -40 20 -63t60 -23q41 0 92 22l29 -94q-67 -47 -160 -47q-88 0 -138 50.5t-50 125.5q0 84 61 151.5t158 102.5l-19 139q-21 -23 -48.5 -45.5 t-70 -49.5t-97.5 -43.5t-113 -16.5q-173 0 -256.5 106.5t-83.5 278.5z" />
<glyph unicode="&#x174;" horiz-adv-x="1732" d="M72 1434h182l258 -1213h8l260 1213h172l260 -1213h9l258 1213h182l-332 -1434h-219l-240 1065h-8l-239 -1065h-220zM555 1569l231 338h160l232 -338h-131l-181 188l-180 -188h-131z" />
<glyph unicode="&#x175;" horiz-adv-x="1449" d="M51 1126h176l199 -933h8l219 933h144l219 -933h8l199 933h176l-271 -1126h-208l-191 766h-8l-191 -766h-208zM416 1262l231 337h160l231 -337h-131l-180 188l-180 -188h-131z" />
<glyph unicode="&#x176;" horiz-adv-x="1153" d="M57 1434h195l319 -721h11l319 721h199l-436 -902v-532h-175v532zM264 1569l232 338h159l232 -338h-131l-181 188l-180 -188h-131z" />
<glyph unicode="&#x177;" horiz-adv-x="987" d="M51 1126h176l265 -933h8l260 933h178l-471 -1540h-164l131 414h-41zM184 1262l232 337h159l232 -337h-131l-180 188l-181 -188h-131z" />
<glyph unicode="&#x178;" horiz-adv-x="1153" d="M57 1434h195l319 -721h11l319 721h199l-436 -902v-532h-175v532zM297 1606v206h201v-206h-201zM651 1606v206h201v-206h-201z" />
<glyph unicode="&#x179;" horiz-adv-x="1083" d="M119 0v129l631 1145h-600v160h808v-134l-630 -1140h630v-160h-839zM473 1569l113 338h178l-170 -338h-121z" />
<glyph unicode="&#x17a;" horiz-adv-x="960" d="M104 0v135l547 840h-518v151h717v-133l-547 -841h578v-152h-777zM379 1262l113 337h178l-170 -337h-121z" />
<glyph unicode="&#x17b;" horiz-adv-x="1083" d="M119 0v129l631 1145h-600v160h808v-134l-630 -1140h630v-160h-839zM449 1602v208h182v-208h-182z" />
<glyph unicode="&#x17c;" horiz-adv-x="960" d="M104 0v135l547 840h-518v151h717v-133l-547 -841h578v-152h-777zM387 1294v209h182v-209h-182z" />
<glyph unicode="&#x17d;" horiz-adv-x="1083" d="M119 0v129l631 1145h-600v160h808v-134l-630 -1140h630v-160h-839zM258 1907h131l180 -189l181 189h131l-232 -338h-160z" />
<glyph unicode="&#x17e;" horiz-adv-x="960" d="M104 0v135l547 840h-518v151h717v-133l-547 -841h578v-152h-777zM188 1599h131l181 -188l180 188h131l-231 -337h-160z" />
<glyph unicode="&#x192;" horiz-adv-x="1015" d="M-174 -387l39 133q83 -25 147 -25q184 0 211 193l142 926h-187l19 121l192 22l31 201q59 364 387 364q92 0 166 -41l-58 -131q-61 21 -114 21q-180 0 -211 -193l-37 -221h295l-27 -143h-293l-135 -891q-15 -96 -39 -163t-66 -117.5t-107 -74.5t-156 -24 q-49 0 -107.5 13.5t-91.5 29.5z" />
<glyph unicode="&#x1e2;" horiz-adv-x="1640" d="M59 0l480 1434h972v-160h-772l156 -463h571v-160h-524l150 -491h419v-160h-534l-113 356h-508l-112 -356h-185zM399 518h422l-207 647h-8zM731 1675v142h522v-142h-522z" />
<glyph unicode="&#x1e3;" horiz-adv-x="1652" d="M111 307q0 80 28.5 146t78 111t112 78.5t136.5 52t144.5 27.5t141.5 9v68q0 192 -238 192q-136 0 -303 -76l-49 136q170 92 352 92q120 0 198.5 -33.5t131.5 -101.5q109 135 309 135q202 0 299.5 -110.5t97.5 -315.5v-211h-635v-168q0 -91 59.5 -147t188.5 -56 q151 0 291 96l68 -125q-61 -55 -160 -88.5t-199 -33.5q-256 0 -350 161q-67 -81 -149.5 -121t-204.5 -40q-162 0 -255 90.5t-93 232.5zM274 307q0 -89 60.5 -139.5t150.5 -50.5q100 0 173 51.5t96 114.5v317q-70 0 -134 -8t-129 -28.5t-111.5 -52.5t-76 -84.5t-29.5 -119.5z M584 1368v141h522v-141h-522zM915 641h476v64q0 147 -55.5 216.5t-182.5 69.5t-182.5 -69.5t-55.5 -216.5v-64z" />
<glyph unicode="&#x1fa;" horiz-adv-x="1220" d="M61 0l447 1350q-105 49 -105 182q0 94 57.5 148.5t149.5 54.5t149.5 -54.5t57.5 -148.5q0 -64 -27.5 -111t-76.5 -71l448 -1350h-184l-113 356h-508l-112 -356h-183zM399 518h422l-207 647h-8zM508 1532q0 -46 27.5 -73t74.5 -27t75 27t28 73t-28 73t-75 27t-74.5 -27 t-27.5 -73zM551 1788l135 317h184l-198 -317h-121z" />
<glyph unicode="&#x1fb;" horiz-adv-x="1069" d="M111 307q0 80 28.5 146.5t78 111.5t112 78.5t136.5 52t144.5 27t141.5 8.5v68q0 192 -238 192q-136 0 -303 -76l-49 136q170 92 352 92q401 0 401 -379v-764h-131l-18 119q-114 -135 -307 -135q-162 0 -255 90.5t-93 232.5zM274 307q0 -89 60.5 -139.5t150.5 -50.5 q101 0 173.5 49.5t95.5 112.5v321q-59 0 -113 -5.5t-109.5 -18t-100.5 -35t-81 -53.5t-56 -77.5t-20 -103.5zM328 1407q0 89 51.5 142.5t136.5 58.5l80 241h178l-133 -264q100 -54 100 -178q0 -95 -56.5 -149t-149.5 -54t-150 54t-57 149zM432 1407q0 -46 28 -73t75 -27 t74.5 27t27.5 73t-27.5 73t-74.5 27t-75 -27t-28 -73z" />
<glyph unicode="&#x1fc;" horiz-adv-x="1640" d="M59 0l480 1434h972v-160h-772l156 -463h571v-160h-524l150 -491h419v-160h-534l-113 356h-508l-112 -356h-185zM399 518h422l-207 647h-8zM856 1569l113 338h178l-170 -338h-121z" />
<glyph unicode="&#x1fd;" horiz-adv-x="1652" d="M111 307q0 80 28.5 146t78 111t112 78.5t136.5 52t144.5 27.5t141.5 9v68q0 192 -238 192q-136 0 -303 -76l-49 136q170 92 352 92q120 0 198.5 -33.5t131.5 -101.5q109 135 309 135q202 0 299.5 -110.5t97.5 -315.5v-211h-635v-168q0 -91 59.5 -147t188.5 -56 q151 0 291 96l68 -125q-61 -55 -160 -88.5t-199 -33.5q-256 0 -350 161q-67 -81 -149.5 -121t-204.5 -40q-162 0 -255 90.5t-93 232.5zM274 307q0 -89 60.5 -139.5t150.5 -50.5q100 0 173 51.5t96 114.5v317q-70 0 -134 -8t-129 -28.5t-111.5 -52.5t-76 -84.5t-29.5 -119.5z M682 1262l113 337h178l-170 -337h-121zM915 641h476v64q0 147 -55.5 216.5t-182.5 69.5t-182.5 -69.5t-55.5 -216.5v-64z" />
<glyph unicode="&#x1fe;" horiz-adv-x="1236" d="M143 477v479q0 230 120.5 362t354.5 132q122 0 209 -37l37 94h137l-65 -157q158 -125 158 -394v-479q0 -230 -121 -361.5t-355 -131.5q-124 0 -219 36l-37 -94h-137l66 162q-148 127 -148 389zM317 498q0 -147 48 -230l399 989q-66 27 -146 27q-160 0 -230.5 -87.5 t-70.5 -260.5v-438zM463 178q60 -28 155 -28q160 0 231 88t71 260v438q0 147 -54 238zM526 1569l113 338h178l-170 -338h-121z" />
<glyph unicode="&#x1ff;" horiz-adv-x="1044" d="M113 410v307q0 202 102.5 314t306.5 112q83 0 160 -23l33 80h127l-54 -131q144 -106 144 -352v-307q0 -426 -410 -426q-88 0 -162 22l-32 -80h-127l53 133q-141 109 -141 351zM276 422q0 -136 43 -201l306 756q-41 14 -103 14q-132 0 -189 -69t-57 -217v-283zM418 150 q44 -15 104 -15q132 0 189 69.5t57 217.5v283q0 132 -45 200zM432 1262l113 337h178l-170 -337h-121z" />
<glyph unicode="&#x218;" horiz-adv-x="1081" d="M86 121l80 137q64 -35 106.5 -54t110.5 -36.5t137 -17.5q150 0 216.5 66.5t66.5 178.5q0 70 -23.5 121.5t-63 81.5t-91 52t-108.5 38t-114 33t-108.5 43t-91 62.5t-63 97.5t-23.5 143q0 185 106.5 284t306.5 99q220 0 390 -129l-78 -131q-150 98 -312 98 q-72 0 -122 -17.5t-75.5 -49.5t-35.5 -68.5t-10 -83.5q0 -52 23.5 -90.5t63 -62t91 -42t108.5 -35.5t114 -37t108.5 -51.5t91 -74t63 -110.5t23.5 -156q0 -90 -25.5 -165t-78 -134.5t-141.5 -93t-208 -33.5q-116 0 -229.5 35.5t-204.5 101.5zM424 -100h188v-166 q0 -139 -108 -244l-76 59q74 82 74 166h-78v185z" />
<glyph unicode="&#x219;" horiz-adv-x="892" d="M72 92l59 123q177 -86 305 -86q230 0 230 197q0 37 -11.5 65.5t-28.5 47t-50 34t-61.5 25t-78.5 22.5q-45 12 -71 19.5t-66.5 22.5t-64.5 29t-52.5 37.5t-44 50t-26.5 63.5t-11 81q0 158 99 239t262 81q166 0 319 -88l-55 -129q-134 71 -264 71q-203 0 -203 -161 q0 -33 13.5 -59t31.5 -42.5t54.5 -32t63 -24t75.5 -21.5q45 -13 73.5 -22t66.5 -24t61.5 -30.5t49 -39.5t39.5 -52t23.5 -66.5t9.5 -84.5q0 -169 -96.5 -261.5t-286.5 -92.5q-104 0 -203.5 34.5t-160.5 73.5zM352 -100h189v-166q0 -138 -109 -244l-76 59q74 82 74 166h-78 v185z" />
<glyph unicode="&#x21a;" horiz-adv-x="1136" d="M92 1274v160h950v-160h-387v-1274h-174v1274h-389zM467 -100h188v-166q0 -139 -108 -244l-76 59q74 82 74 166h-78v185z" />
<glyph unicode="&#x21b;" horiz-adv-x="849" d="M57 983v129l203 14v226l160 20v-246h309v-143h-309v-659q0 -95 36.5 -137t133.5 -42q64 0 153 27l31 -133q-93 -45 -205 -45q-174 0 -243.5 81.5t-69.5 268.5v639h-199zM408 -100h188v-166q0 -138 -109 -244l-75 59q73 81 73 166h-77v185z" />
<glyph unicode="&#x237;" horiz-adv-x="491" d="M-156 -391l39 135q58 -14 101 -14q98 0 139 50.5t41 141.5v1204h164v-1169q0 -189 -79.5 -284t-254.5 -95q-86 0 -150 31z" />
<glyph unicode="&#x2c6;" horiz-adv-x="937" d="M158 1262l231 337h160l231 -337h-131l-180 188l-180 -188h-131z" />
<glyph unicode="&#x2c7;" horiz-adv-x="937" d="M158 1599h131l180 -188l180 188h131l-231 -337h-160z" />
<glyph unicode="&#x2d8;" horiz-adv-x="782" d="M100 1544v31h127v-25q0 -83 39.5 -120t124.5 -37t124.5 37t39.5 120v25h127v-31q0 -145 -80 -210.5t-211 -65.5t-211 65.5t-80 210.5z" />
<glyph unicode="&#x2d9;" horiz-adv-x="442" d="M129 1294v209h182v-209h-182z" />
<glyph unicode="&#x2da;" horiz-adv-x="915" d="M250 1434q0 94 57.5 148t149.5 54t149.5 -54t57.5 -148q0 -95 -57 -149t-150 -54t-150 54t-57 149zM354 1434q0 -46 28 -73.5t75 -27.5t74.5 27.5t27.5 73.5t-27.5 73t-74.5 27t-75 -27t-28 -73z" />
<glyph unicode="&#x2db;" horiz-adv-x="849" d="M250 -254q0 83 61.5 151t159.5 103h129q-87 -39 -145 -101.5t-58 -123.5q0 -40 20 -63t60 -23q41 0 92 22l29 -94q-67 -47 -160 -47q-88 0 -138 50.5t-50 125.5z" />
<glyph unicode="&#x2dc;" horiz-adv-x="825" d="M76 1337q26 81 79.5 138t123.5 57q51 0 101 -27t91 -53.5t70 -26.5q36 0 59 24.5t45 68.5l107 -45q-29 -92 -84 -143.5t-121 -51.5q-51 0 -101 26.5t-91 53t-70 26.5q-62 0 -105 -92z" />
<glyph unicode="&#x2dd;" horiz-adv-x="839" d="M139 1262l113 337h178l-170 -337h-121zM414 1262l112 337h179l-170 -337h-121z" />
<glyph unicode="&#x1e80;" horiz-adv-x="1732" d="M72 1434h182l258 -1213h8l260 1213h172l260 -1213h9l258 1213h182l-332 -1434h-219l-240 1065h-8l-239 -1065h-220zM659 1907h179l112 -338h-121z" />
<glyph unicode="&#x1e81;" horiz-adv-x="1449" d="M51 1126h176l199 -933h8l219 933h144l219 -933h8l199 933h176l-271 -1126h-208l-191 766h-8l-191 -766h-208zM510 1599h178l113 -337h-121z" />
<glyph unicode="&#x1e82;" horiz-adv-x="1732" d="M72 1434h182l258 -1213h8l260 1213h172l260 -1213h9l258 1213h182l-332 -1434h-219l-240 1065h-8l-239 -1065h-220zM778 1569l113 338h178l-170 -338h-121z" />
<glyph unicode="&#x1e83;" horiz-adv-x="1449" d="M51 1126h176l199 -933h8l219 933h144l219 -933h8l199 933h176l-271 -1126h-208l-191 766h-8l-191 -766h-208zM635 1262l113 337h178l-170 -337h-121z" />
<glyph unicode="&#x1e84;" horiz-adv-x="1732" d="M72 1434h182l258 -1213h8l260 1213h172l260 -1213h9l258 1213h182l-332 -1434h-219l-240 1065h-8l-239 -1065h-220zM588 1606v206h200v-206h-200zM942 1606v206h201v-206h-201z" />
<glyph unicode="&#x1e85;" horiz-adv-x="1449" d="M51 1126h176l199 -933h8l219 933h144l219 -933h8l199 933h176l-271 -1126h-208l-191 766h-8l-191 -766h-208zM446 1298v207h201v-207h-201zM801 1298v207h200v-207h-200z" />
<glyph unicode="&#x1ef2;" horiz-adv-x="1153" d="M57 1434h195l319 -721h11l319 721h199l-436 -902v-532h-175v532zM377 1907h178l113 -338h-121z" />
<glyph unicode="&#x1ef3;" horiz-adv-x="987" d="M51 1126h176l265 -933h8l260 933h178l-471 -1540h-164l131 414h-41zM299 1599h178l113 -337h-121z" />
<glyph unicode="&#x2000;" horiz-adv-x="1052" />
<glyph unicode="&#x2001;" horiz-adv-x="2105" />
<glyph unicode="&#x2002;" horiz-adv-x="1052" />
<glyph unicode="&#x2003;" horiz-adv-x="2105" />
<glyph unicode="&#x2004;" horiz-adv-x="701" />
<glyph unicode="&#x2005;" horiz-adv-x="526" />
<glyph unicode="&#x2006;" horiz-adv-x="350" />
<glyph unicode="&#x2007;" horiz-adv-x="350" />
<glyph unicode="&#x2008;" horiz-adv-x="263" />
<glyph unicode="&#x2009;" horiz-adv-x="421" />
<glyph unicode="&#x200a;" horiz-adv-x="116" />
<glyph unicode="&#x2010;" horiz-adv-x="628" d="M72 541v151h485v-151h-485z" />
<glyph unicode="&#x2011;" horiz-adv-x="628" d="M72 541v151h485v-151h-485z" />
<glyph unicode="&#x2012;" horiz-adv-x="628" d="M72 541v151h485v-151h-485z" />
<glyph unicode="&#x2013;" horiz-adv-x="987" d="M72 541v151h843v-151h-843z" />
<glyph unicode="&#x2014;" horiz-adv-x="1628" d="M72 541v151h1484v-151h-1484z" />
<glyph unicode="&#x2018;" horiz-adv-x="503" d="M135 1036v226q0 163 160 317l92 -74q-33 -38 -51.5 -61.5t-41.5 -76t-24 -105.5h97v-226h-232z" />
<glyph unicode="&#x2019;" horiz-adv-x="503" d="M117 1092q24 28 37 44.5t35 50t32.5 70.5t11.5 78h-96v226h232v-226q0 -163 -160 -317z" />
<glyph unicode="&#x201a;" horiz-adv-x="458" d="M92 -244q24 28 37.5 44.5t35 50.5t32.5 71.5t12 77.5h-96v225h231v-225q0 -163 -160 -317z" />
<glyph unicode="&#x201c;" horiz-adv-x="851" d="M135 1036v226q0 163 160 317l92 -74q-33 -38 -51.5 -61.5t-41.5 -76t-24 -105.5h97v-226h-232zM483 1036v226q0 163 160 317l92 -74q-33 -38 -51.5 -61.5t-41.5 -76t-24 -105.5h97v-226h-232z" />
<glyph unicode="&#x201d;" horiz-adv-x="851" d="M117 1092q24 28 37 44.5t35 50t32.5 70.5t11.5 78h-96v226h232v-226q0 -163 -160 -317zM465 1092q33 38 51.5 61.5t41.5 76t24 105.5h-97v226h232v-226q0 -163 -160 -317z" />
<glyph unicode="&#x201e;" horiz-adv-x="851" d="M119 -244q24 28 37.5 44.5t35 50.5t32.5 71.5t12 77.5h-97v225h232v-225q0 -163 -160 -317zM467 -244q24 28 37.5 44.5t35 50.5t32.5 71.5t12 77.5h-97v225h232v-225q0 -163 -160 -317z" />
<glyph unicode="&#x2020;" horiz-adv-x="821" d="M102 920v167l226 -8l-13 430h191l-10 -430l225 8v-167l-225 6l-7 -1010h-155l-8 1010z" />
<glyph unicode="&#x2021;" horiz-adv-x="821" d="M102 338v168l224 -6v426l-224 -6v167l226 -8l-13 430h191l-10 -430l225 8v-167l-225 6v-426l225 6v-168l-225 8l10 -430h-191l13 430z" />
<glyph unicode="&#x2022;" horiz-adv-x="835" d="M143 625q0 123 76 198.5t199 75.5t198.5 -75.5t75.5 -198.5t-75.5 -199t-198.5 -76t-199 76t-76 199z" />
<glyph unicode="&#x202f;" horiz-adv-x="421" />
<glyph unicode="&#x2030;" horiz-adv-x="2258" d="M113 965v196q0 141 73 215t205 74t205.5 -74t73.5 -215v-196q0 -138 -73.5 -211.5t-205.5 -73.5t-205 73.5t-73 211.5zM260 963q0 -67 27.5 -103.5t103.5 -36.5t103.5 36.5t27.5 103.5v200q0 72 -30 108t-101 36t-101 -36t-30 -108v-200zM426 -59l575 1552h164 l-575 -1552h-164zM922 268v197q0 141 73 215t205 74t205.5 -74t73.5 -215v-197q0 -138 -73.5 -211t-205.5 -73t-205 73t-73 211zM1069 266q0 -67 27.5 -103t103.5 -36t103.5 36t27.5 103v201q0 72 -30 107.5t-101 35.5t-101 -35.5t-30 -107.5v-201zM1589 268v197 q0 141 73.5 215t205.5 74t205 -74t73 -215v-197q0 -138 -73 -211t-205 -73t-205.5 73t-73.5 211zM1737 266q0 -67 27.5 -103t103.5 -36t103.5 36t27.5 103v201q0 72 -30 107.5t-101 35.5t-101 -35.5t-30 -107.5v-201z" />
<glyph unicode="&#x2039;" horiz-adv-x="702" d="M98 549v127l506 371v-148l-299 -287l299 -286v-148z" />
<glyph unicode="&#x203a;" horiz-adv-x="702" d="M98 178v148l299 286l-299 287v148l506 -371v-127z" />
<glyph unicode="&#x2044;" horiz-adv-x="763" d="M41 -51l526 1536h170l-526 -1536h-170z" />
<glyph unicode="&#x205f;" horiz-adv-x="526" />
<glyph unicode="&#x20ac;" horiz-adv-x="1208" d="M39 520v131h104v131h-104v131h104v43q0 230 120.5 362t354.5 132q205 0 388 -109l-74 -135q-93 39 -162.5 58.5t-151.5 19.5q-159 0 -230 -88t-71 -260v-23h396v-131h-396v-131h396v-131h-396v-22q0 -172 71 -260t230 -88q160 0 314 77l72 -131q-168 -112 -386 -112 q-234 0 -354.5 131.5t-120.5 361.5v43h-104z" />
<glyph unicode="&#x2122;" horiz-adv-x="1400" d="M84 1325v109h514v-109h-201v-653h-114v653h-199zM690 672v762h88l226 -455l227 455h86v-762h-107v485h-8l-174 -364h-49l-174 364h-8v-485h-107z" />
<glyph unicode="&#x2190;" horiz-adv-x="1755" d="M141 709l656 639l110 -111q-7 -8 -463 -451h1160v-155h-1160l463 -451l-110 -110z" />
<glyph unicode="&#x2191;" horiz-adv-x="1492" d="M106 807l639 655l639 -655l-110 -111q-8 7 -451 463v-1159h-155v1159l-451 -463z" />
<glyph unicode="&#x2192;" horiz-adv-x="1755" d="M152 631v155h1159l-463 451l110 111l656 -639l-656 -639l-110 110q7 8 463 451h-1159z" />
<glyph unicode="&#x2193;" horiz-adv-x="1492" d="M106 627l111 110q8 -7 451 -463v1160h155v-1160l451 463l110 -110l-639 -656z" />
<glyph unicode="&#x2212;" horiz-adv-x="980" d="M20 532v148h941v-148h-941z" />
<glyph unicode="&#x2260;" horiz-adv-x="976" d="M18 330v147h383l80 262h-463v148h508l49 164h91q0 3 -15 -44t-37 -120h344v-148h-389l-77 -262h466v-147h-512l-47 -162h-90l49 162h-340z" />
<glyph unicode="&#x25fc;" horiz-adv-x="1126" d="M0 0v1126h1126v-1126h-1126z" />
<glyph unicode="&#xf6c3;" horiz-adv-x="536" d="M174 -100h188v-166q0 -139 -108 -244l-76 59q74 82 74 166h-78v185z" />
<glyph horiz-adv-x="1146" d="M123 500v434q0 232 118.5 374t331.5 142t332 -142t119 -374v-434q0 -232 -119 -374t-332 -142t-331.5 142t-118.5 374zM297 510q0 -163 57 -252l297 1016q-38 10 -78 10q-138 0 -207 -93t-69 -267v-414zM494 158q33 -8 79 -8q139 0 208 93t69 267v414q0 161 -57 250z" />
<glyph d="M133 500v434q0 232 119 374t332 142t331.5 -142t118.5 -374v-434q0 -232 -118.5 -374t-331.5 -142t-332 142t-119 374zM307 510q0 -174 69 -267t208 -93q138 0 207 93t69 267v414q0 174 -69 267t-207 93q-139 0 -208 -93t-69 -267v-414z" />
<glyph d="M154 1255l452 179h137v-1274h261v-160h-787v160h352v1093l-362 -143z" />
<glyph d="M154 1327q196 123 397 123q205 0 329 -101.5t124 -287.5q0 -81 -36.5 -157.5t-94.5 -137.5t-128.5 -120t-141 -114.5t-128.5 -110.5t-94.5 -120t-36.5 -131h655v-170h-837v147q0 84 37 165t95.5 147t129.5 129.5t142.5 121.5t130 112.5t95.5 113t37 113.5q0 235 -280 235 q-141 0 -322 -96z" />
<glyph d="M137 109l70 135q196 -94 340 -94q94 0 157.5 21t94 60.5t42 81.5t11.5 99q0 241 -291 241h-207v156h207q68 0 122.5 22t91 76t36.5 133q0 244 -258 244q-131 0 -307 -88l-72 133q190 121 381 121q209 0 319.5 -102.5t110.5 -280.5q0 -239 -172 -315q97 -30 153 -123 t56 -219q0 -86 -25 -159.5t-78 -135t-147.5 -96.5t-222.5 -35q-215 0 -412 125z" />
<glyph d="M80 291v135l432 1008h188l-434 -983h416v442h174v-442h229v-160h-229v-291h-174v291h-602z" />
<glyph d="M137 113l72 133q184 -96 338 -96q76 0 132 17.5t88.5 45t52 67.5t26 77.5t6.5 82.5q0 133 -70 214t-221 81q-84 0 -144 -18t-124 -53l-100 73l43 697h694v-170h-549l-27 -406q88 43 211 43q92 0 168 -23.5t129 -65t89.5 -99.5t53.5 -126.5t17 -146.5q0 -74 -15 -139 t-50 -124t-88 -101t-135 -67t-185 -25q-110 0 -222 36.5t-190 92.5z" />
<glyph d="M119 471v410q0 126 29.5 228.5t88.5 179.5t155 119t222 42q198 0 375 -111l-69 -141q-157 86 -314 86q-153 0 -233 -94t-80 -260v-131q130 135 313 135q204 0 322.5 -125t118.5 -342q0 -218 -120.5 -350.5t-344.5 -132.5q-209 0 -336 135t-127 352zM293 471 q0 -159 77 -240t212 -81q134 0 212 79.5t78 237.5q0 156 -78 234.5t-212 78.5q-86 0 -164 -41t-125 -102v-166z" />
<glyph d="M137 1264v170h891v-134l-551 -1300h-186l547 1264h-701z" />
<glyph d="M115 377q0 136 69 223t203 148q-237 119 -237 329q0 162 118.5 267.5t315.5 105.5t315.5 -105.5t118.5 -267.5q0 -209 -238 -329q134 -61 203.5 -148t69.5 -223q0 -185 -125 -289t-344 -104t-344 104t-125 289zM285 385q0 -112 82.5 -177t216.5 -65t216.5 65t82.5 177 q0 101 -69 171t-230 116q-161 -46 -230 -116t-69 -171zM322 1077q0 -43 15.5 -80.5t37 -63.5t60 -52t69.5 -42t80 -38q49 22 80 38t69.5 42t60 52t37 63.5t15.5 80.5q0 97 -67.5 156t-194.5 59t-194.5 -59t-67.5 -156z" />
<glyph d="M119 967q0 218 120.5 350.5t344.5 132.5q209 0 336 -135t127 -352v-410q0 -126 -29.5 -228.5t-89 -179.5t-155.5 -119t-222 -42q-199 0 -375 110l70 142q157 -86 313 -86q153 0 233 94t80 260v131q-130 -135 -313 -135q-204 0 -322 125t-118 342zM293 967 q0 -156 78.5 -235t212.5 -79q86 0 163 41.5t125 102.5v166q0 159 -77 240t-211 81t-212.5 -80t-78.5 -237z" />
<glyph d="M133 500v434q0 232 119 374t332 142t331.5 -142t118.5 -374v-434q0 -232 -118.5 -374t-331.5 -142t-332 142t-119 374zM307 510q0 -161 58 -252l297 1016q-38 10 -78 10q-139 0 -208 -93t-69 -267v-414zM504 158q33 -8 80 -8q138 0 207 93t69 267v414q0 161 -57 250z" />
<glyph d="M135 121l80 137q64 -35 106.5 -54t110.5 -36.5t137 -17.5q150 0 216.5 66.5t66.5 178.5q0 70 -23.5 121.5t-63 81.5t-91 52t-108.5 38t-114 33t-108.5 43t-91 62.5t-63 97.5t-23.5 143q0 168 89 266t257 113v145h143v-145q174 -18 314 -125l-78 -131q-150 98 -311 98 q-72 0 -122 -17.5t-75.5 -49.5t-36 -68.5t-10.5 -83.5q0 -52 23.5 -90.5t63 -62t91 -42t108.5 -35.5t114 -37t108.5 -51.5t91 -74t63 -110.5t23.5 -156q0 -82 -21 -152t-64 -127t-114.5 -94.5t-167.5 -48.5v-183h-143v181q-220 16 -377 135z" />
<glyph d="M104 666v110l170 29q-34 117 -34 231q0 90 26.5 162t70 118.5t103 77t123 43.5t133.5 13q106 0 200.5 -32t158.5 -75l-62 -133q-155 74 -295 74q-284 0 -284 -256q0 -101 35 -219h475v-143h-441q35 -158 35 -224q0 -179 -127 -282h670v-160h-920v145q33 16 52 27 t47.5 30.5t45 41t33.5 51t25 68.5t8 86q0 69 -41 217h-207z" />
<glyph d="M63 1434h195l320 -721h10l319 721h199l-365 -754h234v-148h-305v-112h305v-148h-305v-272h-174v272h-306v148h306v112h-306v148h234z" />
<glyph d="M106 520v131h105v131h-105v131h105v43q0 230 120.5 362t354.5 132q204 0 387 -109l-74 -135q-94 40 -162.5 59t-150.5 19q-159 0 -230 -88t-71 -260v-23h395v-131h-395v-131h395v-131h-395v-22q0 -172 71 -260t230 -88t313 77l72 -131q-168 -112 -385 -112 q-234 0 -354.5 131.5t-120.5 361.5v43h-105z" />
<glyph horiz-adv-x="417" d="M102 1198l35 338h176l-100 -338h-111z" />
</font>
</defs>
</svg>
